アットウィキロゴ

Ring

アーティスト R Sound Design feat.向日葵

BPM BASIC ADVANCED EXPERT MASTER Re:MASTER
132 2 6 9+ 12+ -

EXPERT MASTER Re:MASTER
譜面制作者 はっぴー Jack -

BASIC


ADVANCED


EXPERT

(132){4}6h[4:1],5,3h[4:1],4,2,1/8,7,5/6,3h[4:1],4,6h[4:1],5,7,1/8,2,3/4,7h[4:1],5,3h[4:1],4,2/5,1,8,4/7,2h[4:1],4,6h[4:1],5,4/7,8bp4[4:1],,,

{8}3/4,,2h[4:3]/5,,,4,4,,5,,6h[4:3],,,4,4,,3,,2h[4:3],,,4,4,,5,5,3qq5[2:1],,,,,,6,,7h[4:3]/4,,,5,5,,4,,3h[4:3],,,5,5,,6,,7h[4:3],,,5,5,,4,4,6>3[4:1],,,,,,

{16}2h[16:3],,,3h[16:3],,,4,,4,,,,5/6,,,,7h[16:3],,,6h[16:3],,,5,,5,,,,4/3,,,,3h[16:3],,,2h[16:3],,,1,,6h[16:3],,,7h[16:3],,,8,,1h[16:3],,,2h[16:3],,,3,,3,,,,4/5,,,,
7h[16:3],,,6h[16:3],,,5,,5,,,,4/3,,,,2h[16:3],,,3h[16:3],,,4,,4,,,,5/6,,,,6h[16:3],,,7h[16:3],,,8,,1h[16:3],,,2h[16:3],,,3,,{8}4x/5x,4x/5x,,,,1/8,1/8,,

{8}1-5[8:1]/2-5[8:1],,,,7/8,,6,6h[4:1],,8h[4:1],,1h[4:1],,3,3,,4/5,,2h[4:1],,4h[4:1],,5h[4:1],,7h[4:1],,1,1h[4:1],,8,8,,8-4[8:1]/7-4[8:1],,,,2/1,,3,3pp8[2:1],,,,,,7,7h[4:1],,8,,5/6,,{16}4/6,,,3/5,,,2q6[4:1]/6,,{8},,,7,7h[4:1],,8,,8-4[8:1]/7-4[8:1],,,,2/1,,3,3h[4:1],,1h[4:1],,8h[4:1],,6,6,,7/8,,1/2,,3/4,,6,6h[4:1],,5,5,4/7,4/7,,3/4,,1-5[8:1]/2-5[8:1],,,,7/8,,6,6,5,5,7,7h[4:1],,4,4,,2/5,,4/7,,{16}4/5,,,3/6,,,3bq5[2:1]/6b,,{1},

{4}5/6,4/7h[4:3],,5,4,3h[4:3],,5,6,7h[4:3],,5,5,4/8z4[2:1],,,{8}3,,2h[4:3]/5,,,4,4,,5,,6h[4:3],,,4,4,,3,,2h[2:1],,,4,4,,3<6[4:1],,,,,8x,8x,,{4}7<4[4:1],,3>8[4:1],,5-8[4:1],,1-4[4:1],,7,5/6,4,5/6,{16}7h[16:3],,,6h[16:3],,,5,,{4}5,3/4,2>5[4:1],,6<1[4:1],,3pp1[2:1],,,,{16}7h[16:3],,,6h[16:3],,,5,,4h[16:3],,,3h[16:3],,,2,,{8}1/8,1/8,,,,3/6,

{2}3/6h[4:17],E5,E6,E7,E8,E1,E2,E3,{4}E4,3h[1:2],{2}E5,E6,E7,{4}E8,8,8-4[4:1],,1x>8[2:1],,,,1-5[8:1]/2-5[8:1],

{8},,8-4[8:1]/7-4[8:1],,,,1/2,1/2,,4/8,,7/8,,2/5,2/5,,6,6,5,,3,3,4,,1/2,,3/4,,5/6,,8-4[8:1]/7-4[8:1],,,,1-5[8:1]/2-5[8:1],,,,7/8,7<4[4:1]/8>3[4:1],,,,,,2/5,2/5,,3,3,4,,{16}3/5,,,4/6,,,{8}3-6[8:1]/7-2[8:1],,,,,1x/8x,1x/8x,2bx/7bx,,3h[4:1],,1h[4:1],,8h[4:1],,6,6,,7/8,,1/2,,3,3h[4:1],,4,,1-5[8:1]/2-6[8:1],,,,,7/8,8p3[4:1]/7<4[4:1],,,,,1/2,1-5[8:1]/2-5[8:1],,,,8-4[8:1]/7-
4[8:1],,,,2/1,2>5[4:1]/1<6[4:1],,,,,,4/7,4/7,,6,6,5,,{16}4/6,,,2/8,,,3b/7b,,E

MASTER

(132){16}3h[16:3],,,4,,,5,,5h[16:3],,,4,,,3,,3,,5,,5,4,,4,,6,,6,5,,5,,7h[16:3],,,5,,,3,,3h[16:3],,,4,,,6,,6,,4,,4,5,,5,,3,,3,4,,3/5,,6h[16:3],,,5,,,4,,4h[16:3],,,5,,,
6,,6,,4,,4,5,,5,,3,,3,4,,4,,2h[16:3],,,4,,,6,,6h[16:3],,,5,,,3,,3,,5,,5,4,,4h[16:3]/6h[4:1],{4},,

{8}3-5[8:1]/5,,6,,,6,5/7,,3h[4:1]/5,,4h[4:1],,5,4,3/5,,4-6[8:1],,3,,,5,4/6,,2h[4:1]/4qq5[8:3],,,,,8,1/7,,6-4[8:1]/4,,3,,,3,4/2,,6h[4:1]/4,,5h[4:1],,4,5,6/4,,5-3[8:1],,6,,,4,5/3,,7-4[8:1]/5-2[8:1],,,,1,8x/2x,8x/2x,,

{8}4pp4[4:1]*qq4[4:1],,,,,8,4/7,,6p4[8:3]/3,,,,,1,2/5,,3>1[8:1],,4,,5>3[8:1],,6,,7<5[8:1],,8,,1,2,3/5,,
6<4[8:3]/2,,5,,,1,2/5,,3qq5[8:3]/6,,5,,,8,4/7,,5<8[8:1],,4,,1>4[8:1],,5,,3/7,2b/6b,,,,1h[8:3],,,

{16}7<4[8:1],,,,7/8,,,2,1>4[8:1]/2,,,,1/8,,7-5[8:1],,,,4-8[8:1],,2,,2h[4:1],,,,1,,8,,7/4,,5>2[8:1]/6,,,,8<5[8:1],,,,1h[4:1],,,,4,,2/5,,3,,4/6,,7,,1/8,,,,2x-5[8:1],,7x-4[8:1],,2,,7,,,,1-5[8:1]/2,,,8,8h[4:1],,,,6,,6>8[4:1],,,,E2,,C,,E6,,,,1/7,,5/6,,3/4,,2-6[8:1]/8,,,,1/2,,,8w4[8:1],1x/7x,,,8x,,,2bx/6bx,,,,3/4,,2,,1/8,,7,,5x/6x,,8x/4x,,3,,2>5[8:1]/5,,,,1/2,,,7,7/8<5[8:1],,,,1/8,,2-4[8:1],,,,5-1[8:1],,7,,7h[4:1],,,,8,,1,,2/5,,3q5[4:1]/4,,,,5<3[4:1],,,,8,,,,6,,6h[4:1],,,,5-2[8:1],,7-4[8:1],,5,,7,,1x,,2x/5x,,3,,7<4[8:1]/4,,,,7/8,,,2,1>4[8:1]/2,,,,1/8,,7-5[8:1],,,,4-8[8:1],,2,,2h[4:1],,,,1,,3/4,,5/6,,7<4[8:1]/8>3[8:1],,,,7/8,,,,2xh[16:3]/8x,,,4x,,,3bx/7bx,,,,5/6,,4,,,,,,3/4,,1/5,,,,

{16}6,,6,5,,,,,4,,4,5,,,,,3,,3,4,,,,,5,,5,4,6,,6,,3,,3,4,,,,,5,,5,4,,,,,6,,6,5,,5,,7<4[4:1],,4,,3,,,,,3,,4,4,E3,,,,4,,5,5,E4,,,,5,,4,4,E6,,,,6,,5,5,E7,,,,
3,,4,4,E3,,,,6,,5,5,E7,,,,4/5,,3,3,E5,,2,,1,,7x/8x,,1x/6x,,,,

{16}4h[16:3],,,5,4,,6,,6h[16:3],,,4,6,,2,,2h[16:3],,,4,2,,7,,7h[16:3],,,8,7,,2,,2-5[8:1],,,1,2,,7,,7-4[8:1],,,8,7,,1,,1h[16:3],,,8,1,,E8,,E7,,E6,,E5,,E4,,2-6[8:1],,,1,2,,7,,7-1[8:1],,,5,7,,2,,2-4[8:1],,,1,2,,6,6,5,7,4,6,3,5,2,4,1>4[8:1],,,6,1,,8,,8<5[8:1],,,3,8,,4,,2x/6x,,3bh[2:1]/7bh[2:1],,{4},,,5h[1:2],E6,,E5,,E4,,3h[4:9],,E3,,E4,,E5,,7h[4:9],,E6,,E5,,E4,,3h[4:1],,5,{16}4h[16:3]/6h[16:3],,,,,,6,,5,,4,,3,5,3,5,{32}3,2,1,8,7,6,5,4,{4}3bx/7bx,

{16}2>5[8:1]/8,,,,1/2,,,7,7/8-4[8:1],,,,1/8,,2-5[8:1],,,,5-1[8:1]/2,,7,,7h[4:1],,,,8,,1,,5/7,,3<6[8:1]/4,,,,7p3[8:1],,,,2h[4:1],,,,8,,1pp1[4:1]/7,,,,4,,5,,6,,7/8,,2x/6x,,2x/6x,,4,,3/5-7[8:1],,,,1V35[8:1]/5,,,8,8h[4:1],,,,6,,5h[2:1]/7,,,,3,,1,,7,,,,2/8,,3/4,,5/6,,1/7-3[8:1],,,,7/8,,,1w5[8:1],2x/8x,,,1x,,,3x-8[8:1]/7x-4[8:1],,,,3b/7b,,,,2/6,,3/4,,5x/6x,,8x/4x,,1/2,,3/7<4[8:1],,,,7/8,,,2,1-5[8:1]/2,,,,1/8,,7-4[8:1],,,,4-8[8:1]/7,,2,,2h[4:1],,,,1,,8>3[8:1],,7,,6,,,,8,,1<6[8:1],,2,,3,,,,1,,8-4[8:1],,1-5[8:1],,8,,1,,,,3x/7x,,3x/7x,,6,,2>5[8:1]/5,,,,1/2,,,7,7/8,,,2,2/1,,3/8-4[8:1],,,,2-6[8:1],,2,,1,,,,7/8,,5/6,,3/4,,1<6[8:1]/2>5[8:1],,,,1/2,,,,1/7,,,4/5,,,2b/6b,E

Re:MASTER


  • MASTER譜面を追加しました。修正等ありましたらよろしくお願いします。 -- Sugar (2026-03-06 21:42:33)
  • EXPERT譜面を追加しました。修正等ありましたらよろしくお願いします。 -- Sugar (2026-03-15 14:09:45)
名前:
コメント:

タグ:

+ タグ編集
  • タグ:
最終更新:2026年04月01日 18:54