アットウィキロゴ

Ultimate taste

アーティスト ぱらどっと

BPM BASIC ADVANCED EXPERT MASTER Re:MASTER
200 5 7+ 11 13+ -

EXPERT MASTER Re:MASTER
譜面制作者 鳩ホルダー Luxizhel -

BASIC


ADVANCED


EXPERT


MASTER

(200)
{4}25,3,47,{8}6,5,
{8},3,{4}4,25,47,
{4}56,45,34,{8}2,1,
{8},7,{4}8,{2}1bx/6bx,
{4}24,3,57,{8}6,5,
{8},2,{4}4,15,26,
{4}37,{8}8,8,2,2,6,6,
{2}5pp5[4:1]b/4v1[4:1]b,{4},2bx/6bx,

{8}3,4,25,3,4,3,25,4,
{8}3,4,25,3,4,3,{4}25,
{8}3x/4x,4x/5x,{4}5x/6x,{8}6,5,47,6,
{8}5,6,47,5,6,5,{4}4-1[8:1]/7,

{4}8-5[8:1],2-7[8:1],6-3[8:1],4-1[8:1],
{4}8-5[8:1],3,{8}2,2,4,3,
{4}5-8[8:1],1-4[8:1],{8}7,7,5,6,
{2}4z8[4:1],{4},1x/8x,

{4}6/E4,{8}8,8/E6,,3h[4:1],,1h[4:1],
{8},8h[4:1],,6,{4}6h[4:1],E1,
{8}2,4,3,5,4h[4:1],{16}6x,7x,{8}8x,4,
{8}3,2,1,8,{4}7/B4/B5/E5,7-5[8:1],

{4}8x-4[8:1],7-3[8:1],8x-2[8:1],{8}7,7V53[4:1],
{8},1,{4}1-5[8:1],{8}8,8b,{4},
{8}2,2,8,8,6,6,{4}4-7V51[4:3]b,
{1}1b,

{1}2h[1:1],
{1}4h[1:1],
{1}5h[1:1],
{2}7h[2:1],C,
{2}7h[1:1],B6,
{2}5h[1:1],E5,
{2}4h[1:1],E4,
{2}2h[6:5],{6}3x,3x<2V86-4p3[128:557],3x,

(190){2},(185),
(180){4},(175),(170),(165),
(160){4},(155),(150),(145),
(140){4},(135),(132),1x^4[8:1]*^6[8:1],

{4}1x,{8}37,26,{2}5-7[8:1]/1-5[8:1],
{8}46,35,24,35,{2}4-7[8:1]*-1[8:1]/6,
{4}2b/6,{8}17,28,34,45,{4}56,
{8}4x/7x,36,2x/5x,36,{2}4x-2[8:1]/7x-5[8:1],

{4}1>5[4:1],5<1[4:1],1>5[4:1],5,
{4}8<4[4:1],4>8[4:1],8<4[4:1],4,
{4}1^4[4:1],4^7[4:1],7^2[4:1],2^5[4:1],
{4}5-1[4:1],8,6,3bx/7bx,

(140)
{8}2h[8:1]/6,{16}5,5,{8}2h[8:1],4,2h[8:1],{16}3,3,{8}2h[8:1],4,
{8}2h[8:1]/5,{16}6,6,{8}2h[8:1],8,2h[8:1],1,{4}38,
{8}4/7h[8:1],{16}5,5,{8}7h[8:1],6,7h[8:1],{16}5,5,{8}7h[8:1],4,
{8}3/7h[8:1],2,1/7h[8:1],8,78,16,2b/5b,2b/5b,

(150)
{8}34,{16}3,4,{8}3,{16}5,4,{8}5,{16}2,3,{8}2,{16}5,4,
{8}5,{16}2,3,2,3,2,3,2,3,{8}2,{4}15,
{16}3,4,3,4,3,5,3,5,4,5,4,5,4,6,4,6,
{2}5bxq1[4:1]*p1[4:1],{4},2-8[8:1]/7-4[8:1],

{4}2bx-5[8:1]/7bx,2/6-1[8:1],2-6[8:1]/6,2-4[8:1]/5-1[8:1],
{4}2b/5b,37,{8}56,8,34,1,
{4}7b-4[8:1]/8b,3-8[8:1]/7,3/5-1[8:1],2-5[8:1]/5,
{8}2b/6b,7,{4}48,{8}37,{16}1,8,{4}2x/7x,

{16}2-5[8:1]b,1,3,1,{4}2b,{16}7-4[8:1]b,8,6,8,{4}7b,
{16}2,1,4,7,3-8[8:1],8,5-1[8:1],6,{8}3,5,{4}3b,
{8}48,6,15,3,47,{16}6,5,{4}7-3[8:1],
{4}2-6[8:1]/7,2/8-5[8:1]*-3[8:1],8,2b>6[4:1]/6b,

{4}6p1[4:1],1p5[4:1],5,7<3[4:1],
{4}3q8[4:1],8q4[4:1],1x,2^7[4:1],
{4}7q3[4:1],3p5[4:1],5,7x,
{4}35,{8}4,4,35,{16}6,4,{8}6,37,

{4}2v3-5[4:1]/8,8x,6v7-1[4:1],4x,
{4}2v4-6[4:1],7x,8h[2:1],{16}E5,E4,E3,E2,
{4}1xs5[4:1],8x,7s3[4:1],1x,
{4}2xV41-5[2:1],8,{8}8,7,{4}6,

(160)
{4}4b/7b,{8}25,25,{16}3,4,3,4,{8}2,5,
{8}46,7,35,2,46,7,{4}8-4[8:1],
{4}1b/8b,2b/6b,{8}35,2,46,7,
{8}35,{16}2,6,3,7,4,8,,,5x/7x,,,4x/5x,,,

{16}24,,,3,{8}4,25,{16}7-5[8:1],5,,5,{8}7,3,
{16}34,,,6,{8}5,47,{16}2-4[8:1],4,,4,{8}2,6,
{16}56,,,3,{8}4,25,{16}1-5[8:1],6,,6,{4}1,
{8}47,3,26,7,{4}18,C,

(80)
{8}2^5[8:1]/7h[4:1],1,{4}2,{8}3h[4:1]/8^5[8:1],1,{4}8,
{8}2^5[8:1]/6,4,2/6^1[8:1],8,26,3,45,3b/6b,

(170)
{4}7h[8:1]/8h[8:1],5h[8:1]/6h[8:1],{8}34,3h[8:1]/4h[8:1],,1h[8:1]/2h[8:1],
{8},78,{4}7h[8:1]/8h[8:1],2h[8:1]/3h[8:1],4h[8:1]/5h[8:1],
{4}6h[8:1]/7h[8:1],1h[8:1]/8h[8:1],{8}7,5,4,2bhx[4:1],
{8},3h,4h,5h,6h,7h,{4}1h/8h,

(180)
{8}37,{16}2,2,{8}1,{16}3,4,3,4,{8}3,{4}25,
{8}47,{16}6,6,{8}5,{16}7,8,7,8,{8}7,{4}16,
{16}2,2,{8}4,35,{16}6,6,{8}5,46,{4}37,
{16}7,7,{8}5,46,{16}3,3,{8}4,35,{4}2b/6b,

(200)
{1}4>5p4[4:13]/8,
{1},
{1},
{1},
{1}2q6[2:1],
{1}7p3[2:1],
{1}1s5[2:1],
{16}6,5,,3,4,,7,8,{4}7,1b/6b,

{8}2v5[8:1],2,8-4[8:1],8,3-8[8:1],3,7,7V53[4:1],
{8},3,2,1,{4}8-4[8:1],48,
{8}25,3,46,7,38,{16}2,1,{8}2,38,
{8}7-4[8:1],1-5[8:1],7>6[4:1],1,{2}7bx,
{8}7v4[8:1],7,1-5[8:1],1,6-1[8:1],6,2,2V46[4:1],
{8},6,7,8,{4}1-5[8:1],15,
{8}47,6,35,2,16,{16}7,8,{8}7,26,
{2}2bV83[4:1]b/6bV47[4:1]b,{4},1-5[8:1]/5x,

{8}4-7[8:1],4,8v3[8:1],8,6-1[8:1],6,2,2qq7[8:3],
{8},7,6,5,{4}4-8[8:1],14,
{8}57,6,24,1,78,{16}6,5,{8}6,37,
{8}2^5[8:1],6^1[8:1],2-6[8:1],6,{4}2b,8x-4[8:1]b,
{8}5-2[8:1],5,1v6[8:1],1,3-8[8:1],3,7,7pp2[8:3],
{8},2,3,4,{4}5-1[8:1],58,
{16}2x,1x,3,8,4,7,5,6,3,4,2,5,1,6,8,7,
{16}1x,2,3,4,8,7,6,5,{32}1x,2,3,4,5,6,7,8,{4}1/Cf,

{1}2h[2:3]/8V26-4[4:5],
{2},{4},35,
{1}4V62^3-8[4:5]/6h[2:3],
{2},{4},B3/B7/E3/E4/E7/E8/Chf[4:1],
E

Re:MASTER


名前:
コメント:

タグ:

+ タグ編集
  • タグ:
最終更新:2026年03月07日 16:06