アットウィキロゴ

Redemption

アーティスト XinG、10lulu

BPM BASIC ADVANCED EXPERT MASTER Re:MASTER
175 4 7+ 11+ 13+ -

EXPERT MASTER Re:MASTER
譜面制作者 鳩ホルダー はっぴー -

BASIC


ADVANCED


EXPERT


MASTER

(175){16},,,,,,,,4/6,,,3/5,,,2/5,,{1}2pp6[4:3]/5,7qq3[4:3],2qq5[4:3],7pp4[4:3],3pp1[4:3],6qq8[4:3],1>8<1[2:3],,{16}1x,2,3,4,5,6,7,8,2x,3,4,5,6,7,8,1,8x,7,6,5,4,3,2,1,8p4[8:1],,,,2/8,,,,

{16}3,3,3,,6,6,6,,4,4,4,,5,5,5,,3,3,3,,4,,5,,5/6,,7,,8,,1,,7,7,7,,2,2,2,,8,8,8,,1,1,1,,7,7,7,,8,,1,,1/2,,3,,4,,4,,
3,5,3,5,3,5,3,5,2,5,2,5,2,5,2,5,2,4,2,4,2,4,2,4,1,4,1,4,1,4,1,4,1,,,,1/4,1/4,,,8/5,8/5,,,7,6,7,6,8,5,8,5,1,4,1,4,2,3,2,3,1,4,1,4,

{4}1b,1/8-4-1[2:1],,,{1}2-6-3-7[4:3],5-1-4-8[4:3],3-7-2-6[4:3],8-6-3-5-1[4:3],2-8-5-7-3[4:3],4-2-7-1-5[4:3],{16}A4,A3,A2,A1,A8,A7,A6,A5,A4,,,,{4}2-6-2[2:1],,8-4-8[2:1],,1-5-1[2:1],,8-4-8[2:1],,3-6-3[2:1],,7-2-7[2:1],,,E4/B3/B2/A2,E2/B1/B8/A8,E8/B7/B6/A6,E6/B5/B4/A4,D1/E1/B8/B1/Cf,,,1h[8:1],

{8}2/4,6,8w4[4:1],4,,,,,{16}1b,4,1,4,1,4,1,4,E3,4,1,4,1,4,1,4,8,5,8,5,8,5,8,5,E7,5,8,5,8,5,8,5,1,4,1,4,1,4,1,4,E3,4,1,4,1,4,1,4,1x,8,7,6,5x,4,3,2,1x-5[8:1],,,,7x,,,,8b,5,8,5,8,5,8,5,E7,5,8,5,8,5,8,5,1,4,1,4,1,4,1,4,E3,4,1,4,1,4,1,4,8,5,8,5,8,5,8,5,E7,5,8,5,8,5,8,5,8x,1,2,3,4x,5,6,7,8x-4[8:1],,,,1b>4[8:1],,,,5b,,,,5x/6x,,,,7,8,7,8,7,8,7,8,7,5,7,5,7,5,7,5,7,8,7,8,7,8,7,8,7V53[4:1],,,,3V17[4:1],,,,7,,,,3,,,,
6,5,6,5,6,5,6,5,6,8,6,8,6,8,6,8,6,,,,2,5,2,5,2,4,2,4,2,5,2,5,2,4,2,4,2,5,2,4,2,3,2,4,2,5,2,4,2,,,,{12}1,1,1,7,7,7,5,5,5,{16}3,2,1,8,7,6,5,4,1,2,3,4,5,6,7,8,

{2}1b-5-1[2:15],8,7,6,4,3,2,2,3h[2:1],{4},{16},,4,4,{4}4,,,6,6,,,{16},,7,7,{4}7,,,7,8-4[4:13],,,{16},,1,1,{4}1,,,6,6,,,{16},,5,5,{4}5,,3,1-5[8:1],{8}1,,6,6,7,7,8,8,{16}1,7,1,7,2,6,3,5,4b,,,,3h[4:1]/5,,,,4,3,4,3,1,2,1,2,4,3,4,3,6,5,6,5,7,8,7,8,6,5,6,5,6b,,7b/8b,,1b/2b,,3b/4b,,2,1,2,1,2,4,2,4,2,1,2,1,2,4,2,4,2,1,2,1,2,3,2,4,2,5,2,6,2,,,,
7,8,7,8,7,5,7,5,7,8,7,8,7,5,7,5,7,8,7,8,7,6,7,5,7,4,7,3,7h[4:1],,,,8,7,8,7,5,6,5,6,8,7,8,7,2,1,2,1,3,4,3,4,2,1,2,1,2b,,2b/4b,,4b/5b,,5b/7b,,

{16}1b/8b,,,,3,8,3,8,4,8,3,8,4,8,5,8,4,8,5,8,6,8,6,8,5,8,4,8,3b,,2bx/6bx,,1bx/5bx,,,,6,1,6,1,5,1,4,1,3b,,2bx/4bx,,{12}3bx/5bx-8[8:1],,,1-4[8:1],,,7,7,7,5,5,5,4/6,,,{24}2,3,4,7,6,5,{12}1pp4[2:1],,,5,,,5,6,7,8<5[4:1],,,4,3,2,1,,,{16}1,8,1,6,1-5-2[4:1],4,1,,7-3-6[4:1],,,,,,,,1,2,3,4,5-1[8:1],6,7,8,1w5[8:1],,,,,,,,{4}3b/7b<8[4:5],,,,,,,,{8}8,8,1/7,1/7,2/6,2/6,3/5,3/5,{16}6,4,6,4,5,3,5,3,6,4,6,4,7,5,8,6,

{1}1qq5[2:1],8pp4[2:1],{4}5,6-1[8:1],4,3-8[8:1],{8}7-2[8:1],7,4-1[8:1],4,8-5[8:1],8,2,2,{16}3,4,3,4,3,5,3,6,4,5,4,5,4,6,4,7,5,6,5,6,5,7,5,8,{24}6,7,8,1,2,3,{4}4,{48}1x/7h[12:2],,,,2x,,,,3x,,,,4x,,,,5x,,1h[24:5],,6x,,,,7x,,,,6x,,,,5x,,,,4x/8,,,,3x,,8,,2x,,,,{4}1x-5[8:1],,8-4[8:1],,1b>8[4:7],E

Re:MASTER


  • MASTER譜面を追加しました。修正等ありましたらよろしくお願いします。 -- Sugar (2026-03-07 22:22:54)
名前:
コメント:

タグ:

+ タグ編集
  • タグ:
最終更新:2026年04月11日 21:00