| アーティスト |
Shoichiro Hirata feat.Sana |
BASIC
ADVANCED
EXPERT
(155){8}2,,4,,6,6,,5/7,,,,8,8,,,,7,,5,,3,3,,2/4,,,,1,1,,8b,,7h[4:1],,5,,2h[4:1],,4,,6h[4:1],,5,,1/8,,1/8,,2h[4:1],,4,,7h[4:1],,5,,3h[4:1],,4,,4/5,,5/6,,7h[4:1],,5,,2h[4:1],,
4,,6h[4:1],,5,,1/8,,1/8,,2h[4:1],,4,,7h[4:1],,5,,3h[4:1],,4,,2/5,,,,{1}1>4[8:3],8<5[8:3],
{4},{2}2/4,3/4,2/4,4/5,5/7,5/6,5/7,4/5,3,1/2,7/8,6,7/8,1/2,3,{4}4/5,3,2/4,2/4,5,7,6/8,6/8,1,2,1/3,1/3,8,6,5/7,5/7,3,1,2/8,2/8,7,5,4/6,4/6,5,8,1/7,1/7,2,4,3/5,2b/6b,,
{2}3-6[4:1],7-2[4:1],3-8[4:1],7-4[4:1],2-7[4:1],5>2[4:1],,8,7-3[4:1],1-4[4:1],5-8[4:1],3-7[4:1],8<5[4:1],1>4[4:1],,2,{4}3h[4:1]/4h[4:1],,2/3,1,6h[4:1]/5h[4:1],,7/6,8,7h[2:1],,5h[2:1],,3h[2:1],,1,,{8}7,7,,5,5,,3,3,,1,1h[4:1],,,,1b,,
{4}5,6/8,1,1/2,3,1/3,8,7/8,6,5/7,8,1/7,3,2/4,1,2/8,7h[4:1],8,2h[4:1],1,6h[4:1],8,3h[4:1],1,8,5/6,1,3/4,2>5[4:1]/6<1[4:1],,,,4,1/3,8,7/8,5,6/8,1,1/2,3,
2/4,1,2/8,6,5/7,8,1/7,2h[4:1],1,7h[4:1],8>3[4:1],,,{8},,7,7,,1/8,,2,,8/1,,7,,5/6,,4/5,,3/4,3-8[2:1]/4-7[2:1],,,,,,,,,,{4},,8,,7h[4:3],,5h[4:1],,2h[4:3],,4h[4:1],,{8}6b,,,1b/8b,,,3b,,,6-1[2:1]/5-2[2:1],,,,,,,{4},,1,8,7,6,5,4-1[2:1],,,,5-8[2:1],,,,4>1[2:1],,,,5<8[2:1],,,,4,4,3,2,1,8,7,6,5,4,3,2,{8}1/3,1/3,,,8/6,8/6,,,4/5,,
{4}3,2/8,1/7,5,6,1/7,2/8,4,3,2/8,1/7,6-1[4:1],,2-5[4:1],,7,7,4/6,3/5,1/7,2,3/5,4/6,{8}8,8b,,2/4,,1b,,5/7,,7/8,,3/4,,1/2,,5>2[8:5]/6<1[8:5],,,,,,,,,,,
{4}2,1/2,7,7/8,1,1,2/4,3/4,6,5/6,3,3/4,5,5,5/6,6/8,7,7/8,2,1/2,8,8,5/7,5/6,3,3/4,6,5/6,2,1/8,7>2[4:5],E
MASTER
(155){8}2-6[8:1]/7,,4,4-8[8:1],,5-1[8:1],,7,,7b,2b,4b,{16}5h[16:3],,,4h[16:3],,,2h[8:1],,{8}7-3[8:1],,5,5-1[8:1],,4-8[8:1],,2,,7,2,{24}6,5,4,3,,,,,,{8}4/5,,3/6,4,2/5,4,3/6,4,2-6[8:1]/5,6-4[8:1],,7-3[8:1],,8-2[8:1],,,,,3/6,5,4/7,5,3/6,5,7-3[8:1]/4,3-5[8:1],,2-6[8:1],,1-7[8:1],,,,,2/7,8,1/6,8,2/7,8,1/6-2[8:1],2-4[8:1],,1-5[8:1],,8-6[8:1],,,,,7/2,1,8/3,1,7/2,1,8/3-7[8:1],7-5[8:1],,8-4[8:1],,1-3[8:1],,8h[8:17],,,{1}2<5[4:1],7>4[4:1],
{8}3>1[8:1],3,3,3,3<5[8:1],3,3,3,3>1[8:1],3,3,3,3<5[8:1],3,3,3,6>4[8:1],6,6,6,6<8[8:1],6,6,6,6>4[8:1],6,6,6,6<8[8:1],6,6,6,1-6[8:1],1,1,1,1-4[8:1],1,1,1,8-5[8:1],8,8,8,8-3[8:1],8,8,8,2<7[8:1],2,2,2,2>5[8:1],2,2,2,7<4[8:1],7,7,7,7>2[8:1],7,7,7,
{8}3/8,1,2/7,1,3/8,2,1/4,2,3/8,1,2/7,8,1/6,7,5/8,7h[4:1],,5h[4:1],,3h[8:3],,1,1,2h[4:1],,4h[4:1],,6h[8:3],,8,8,,
5/8,5,6/3,6,5/8,5,6/3,6,4/1,4,3/6,3,4/1,4,3/6,8h[8:3],,7,2h[8:3],,3,6h[4:1],,5-2[8:1],,3-7[8:1],,6-1[8:1],,,,,
{4}1p6[8:3]/2pp5[8:3],,,8q3[8:3]/7qq4[8:3],,,1/2,7/8,5p2[8:3]/6pp1[8:3],,,4q7[8:3]/3qq8[8:3],,,1/2,3/4,6p5[8:3]/5>6[8:3],,,3q4[8:3]/4<3[8:3],,,
5/6,7/8,2p1[8:3]/1<2[8:3],,,7q8[8:3]/8>7[8:3],,,,{8}2/7,3/6,4s8[2:1]/5z1[2:1],,,,,,,,,,1/8,1s5[8:1]/8z4[8:1],,1>8[2:1]/8<1[2:1],,,,,,,,,,,,,3/6,3/6,,2/7,,1/8,{48}1,2,3,,,,1,2,3,,,,,,,,,,8,7,6,,,,8,7,6,,,,,,,,,,2,3,4,,,,2,3,4,,,,,,,,,,7,6,5,,,,7,6,5,,,,{16},3,5,,4,,6,4,5,,
{8}2h[8:3]/6,,4,3/4-7[8:1],,6,,6/5-2[8:1],,3,,3-8[8:1]/4,,6,,6<3[8:3]/5,,,,,,4,3,3>6[8:3],,,,,,5,5,6-1[8:1],,2-5[8:1],,3,1,7,5,3-8[8:1],,7-4[8:1],,,,5,3,7-2[8:1],,3-6[8:1],,,,5-1[8:1],5,5b,,4-8[8:1],4,4b,,5-2[8:1],5,5-1[8:1],,5-8[8:1],,,,4-7[8:1],4,4-8[8:1],,4-1[8:1],,4-2[8:1],,4>5[8:5],,,,,,,,4/5,3/6,2V48[8:3]/7V51[8:3],,,,,,2,7,1h[4:1]/8,,4h[4:1],,1h[4:1],6,5,4,8h[4:1],,5h[4:1],,8h[4:1],,6q3[4:1],6,6b,,4w8[4:1],4,4b,,,,6-2[4:1],,2<7[4:1],,7-3[4:1],,,4z8[4:7],4h[8:15],{1},,
{8}8h[4:7],,,,,3,2,1,,7,1,2,,1,7,,{48}1,8,7,6h[48:9],,,,,,,,,,,,,,,5,4,3,2h[48:9],,,,,,,,,,,,,,,8,1,2,3h[48:9],,,,,,,,,,,,,,,4,5,6,7h[48:123],,,{8},,,,,,1,1,8,8,6,6,5,5,4,4,3,3,2,2,1,1,
{1}8pp7[2:1]/4pp3[2:1],2pp1[2:1]/6pp5[2:1],8qq1[2:1]/4qq5[2:1],2qq3[2:1]/6qq7[2:1],{8}1/3,3,3/4,4,4/5,5,5/6,6,8/6,6,6/5,5,5/4,4,4/3,3,1/3,3,3/4,4,4/5,5,5/6,2b/3b,,4,4/3,7b/6b,,6-3[8:1],6,6-2[8:1],,6-1[8:1],,,,3-6[8:1],3,3-7[8:1],,3-8[8:1],,3-1[8:1],,3>4[8:5],,,,,,,,6,6,6<3[8:3],,,,,,8,8,2h[4:1]/7,,3h[4:1],,2h[4:1],1,7,5,6h[4:1],,7h[4:1],,6h[4:1],,2<7[4:1],2,2b,,5-1[4:1],5,5b,,4-6[8:1],4,4-2[8:1],,4w8[4:1],,,,,,,
{8}2h[8:1],,5/6,6,4,3,5,6,2h[8:1],4,3h[8:1],5,4h[8:1],6,5h[8:1],7,6h[8:1],,1/2,2,8,7,1,2,6h[8:1],8,7h[8:1],1,8h[8:1],2,1h[8:1],3,2h[8:1],,4/6,5,3/5,4,4/6,5,
2h[8:1],4,6h[8:1],4,3h[8:1],5,7h[8:1],5,3h[8:1],,2/8,1,7/1,8,2/8,1,6h[8:1],8,2h[8:1],8,7h[8:1],1,3h[8:1],1,6h[8:1]/8h[8:1],,4,3h[8:1]/1h[8:1],,5,2<3[4:3]/7h[1:1],E
Re:MASTER
- EXPERT譜面を追加しました。修正等ありましたらよろしくお願いします。 -- Sugar (2026-03-08 23:17:33)
- MASTER譜面を追加しました。修正等ありましたらよろしくお願いします。 -- Sugar (2026-03-09 14:46:11)
最終更新:2026年03月29日 21:57