アットウィキロゴ

Sun Dance

アーティスト Hiro「Crackin’DJ」

BPM EASY BASIC ADVANCED EXPERT MASTER Re:MASTER
102 2 4 8 8+ 11 14

EXPERT MASTER Re:MASTER
譜面制作者 譜面-100号 ニャイン 譜面-100号

EASY

(102){4},{2},,,,
8,8,1,1,8,8,1,1,7,7,2,2/7,
{1},{2}
7,2/7,6,6,5,5,4,4,,3/6,
1,8,,1/8,
7,2,,2/7,
3,6,3,3/6,
5,4,5,4b,
{2}
3h[2:1],,2h[2:1],,
1h[2:1],,8-5[2:1],,,
6h[2:1],,,7h[2:1],,,2/7,
7,7,6,6,7,7,,,
2,2,3,3,2,2,,,
1,1/2,8,7/8,
6,3/6,,{1}1/8,,,E

BASIC

(102){1},,{4},
7,,7,,6,,6,,7,,7,,2,2,,
6,,3,,8,,{1}1/8,,{4}
1/8,,,2,3,2,,7,6,{8}7,7,,,
{4}
1,2,1,,8,7,6,,2,,7,,3,,2/7,,7,,2,,6,,2/7,,
8,8,8,,1,1,1,,2,2,2,,1,8,8,,{16},
{4}
7h[4:1],,8,,6h[4:1],,7,,
5h[4:1],,6,,6-2[8:3],,,,
1,,1,,2,,2,,8,,8,,2/7,2/7,1b,,{16},
{4}
8,7,6,,2,2,2,,1,8,7,,7,,8,,
1,2,3,,7,7,7,,8,1,2,,1,,2/7,,
8,7,7/8,,1,2,1/2,,
6,3,3/6,,1,,{1}1b,,,E

ADVANCED

(102){1},,
{16},,1,,,2,,,{2}3,
{16},,5,,,6,,,{2}7,
{16},,8,,,7,,,{2}6,
{16},,3,,,2,,,{2}2/3,6/7,2/6,3/7,1/8,,,
{4}2,2,1/8,1/8,
{16},,2h[8:5],,,3,,,{2}4,
{16},,7h[8:5],,,6,,,{8}5,,,8,
{16},,1h[8:5],,,2,,,{4}3,,,6,2,7,
{16}2,,,3,,,2,,{4}2,2/7,8,1,{8},1/8,1/8,,
{16}4,,,5,,,4,,{4}4,3/4,5,5/6,{8},3/6,3/6,,
{16}
8,,,7,,,8,,1,,1,,1,,,,
2,,,1,,,2,,3,,3,,3,,,,
4,,,3,,,4,,5,,5,,5,,,,
{8}4,4,3,2,2/7,,1b/8b,,
{4}1h[1:1],2,,2,,8,{8},1,1,,
{4}8h[1:1],7,,7,{1}2-6[4:1],
{4}8h[1:1],7,,7,,2,{8},1,1,,
{4}1h[4:3],2,,2,,1/8,1/8,1/8,
{16}
2,,3,,4,,5,,6,,,7,,6/7,,,6,,5,,4,,3,,2,,3,,,3,,,
4,,5,,6,,7,,8,,,1,,1/8,,,,,3,,,7,,,2,,,2/7,,,,,
7,,6,,5,,4,,3,,,2,,2/3,,,3,,4,,5,,6,,7,,6,,,6,,,
5,,4,,3,,2,,1,,,8,,1/8,,,,,6,,,2,,,7,,,2/7,,,,,
{4}
3h[8:3],,2,2/3,7h[8:3],,6,6/7,
1h[8:3],,1,1/8,5,6,3,{1}2b/7b,,,E

EXPERT

(102){1},,{8}
1,,2,,3,3,3,,8,,7,,6,6,6,,
4,,5,,6,6,6,,5,,4,,3,3,3,,
6,6,6,,2,2,2,,7,7,7,,5,5,5,,
{4},,,,7,2,
{8}8,8,{4}1b/8b,,,
{8}4,3,4,3,{2},
{8}5,6,5,6,{4},,
8-4[8:1],,,{16}2,,1,,8,,,1/8,{8},,
7,7,6,6,{2}5,{8}8h[4:1],,1,,,8h[8:1],1,,
2,2,3,3,{2}4,{8}8h[4:1],,1,,,8h[8:1],1,,
6,5,4,5,{4}6h[4:1],4,8h[4:1],{8}1,,,8h[8:1],1,,
3,4,5,4,{4}3h[4:1],5,{8}8,8,1,1,4/5,,4/5,,
1,1,8,8,7,6,5,,8,8,1,1,2,3,4,,
2,2,1,1,8,7,{1}6-3[8:1],{8}1b,,
8,7,,7,,7,,7,1,2,,2,,2,,2,,8,,8,,8,,8,
{4}6,3,8-5[8:1],,
{16}
3,,4,,5,,6,,7,,,7/8,,7/8,,,6,,5,,4,,3,,2-7[8:1],,,,,,,,
3,,4,,5,,6,,7,,,7/8,,7/8,,,,,2h[16:3],,,7h[16:3],,,3h[16:3],,,6h[16:3],,,,,
4,,3,,2,,1,,8,,,7/8,,7/8,,,5,,6,,7,,8,,1-6[8:1],,,,,,,,
4,,3,,2,,1,,8,,,7/8,,7/8,,,,,8h[16:3],,,1h[16:3],,,5h[16:3],,,4h[16:3],,,,,
{16}4,3,2,1,{4},2/8,2/8,
{16}5,6,7,8,{4},1/7,1/7,
{16}6,5,4,3,{4},2/4,2/4,
{16}2,3,4,5,{4}6,2/8,{1}1/7,,,E

MASTER

(102){1},,{16}
6h[2:1],,5,,,5,,,1,,1,,18,,,,
3h[2:1],,4,,,4,,,8,,8,,81,,,,
7h[2:1],,8,,,8,,,4,,4,,45,,,,
2h[16:5],,1,,,1,,,27,,,,,5,4,,
67,,,,,5,4,,23,,,,,5,4,,
18,,,,,5,4,,36,,,,,5,4,,
{1},

{16}
2,,7h[4:1],,5,,4,,36,,,1b/8b,,,,,
2,,1,,2,3h[16:7],,,2h[4:1],,,,,,,,
7,,8,,7,6h[16:7],,,7h[4:1],,,,,,27,,
3,,6,,4,5h[16:7],,,4h[4:1],,,,,,,,
4,,5,,3,,6,,2,,7,,1b,,,,
8,,2,1,,6,5,,3,,2,,18,,,,
7,,6,,27,,3,,4,,3,,27,,,,
1,,7,8,,3,4,,6,,7,,81,,,,
2,,3,,72,,6,,5,,6,,72,,,,
1,,6,5,,,1,,8,,7,,18,,,,
5,,2,1,,,5,,4,,3,,54,,,,
8,,3,4,,,8,,2,,3,,28,,,,
5,,5,,4,,3,,7b/8b,,,,1b/2b,,,,

3,,4,,,,4,,2,,4,,,,5,,
6,,5,,,,1,8,1-5[4:1],,7,,6,,8,,
2,,1,,,,1,,3,,1,,,,8,,
36,,,,45,,,,2,,7,,18,,,,
3,,4,,,,4,,2,,4,,,,5,,
6,,5,,,,1,8,1-5[4:1],,7,,6,,8,,
2,,1,,,,1,,3,,1,,,,8,,
36,,,,45,,,,2,,7,,18,,,,
8^5[8:1]/1,,2,,4,,3,,2,,18,18,,78,,,
1^4[8:1]/8,,7,,5,,6,,7,,18,,,23,,,
8^5[8:1]/1,,2,,4,,3,,2,,18,18,,78,,,
,,1,,2,2,,5,5,,7,,1b/8b,,,,
8^5[8:1]/1,,2,,4,,3,,2,,18,18,,78,,,
1^4[8:1]/8,,7,,5,,6,,7,,18,,,23,,,
8^5[8:1]/1,,2,,4,,3,,2,,18,18,,78,,,
,,1,,2,2,,5,5,,7,,1-6[4:1]/8b,,,,

{8}
5-2[4:1],,,,8,8,8-3[4:1],,
4-7[4:1],,,,1,1,1-6[4:1],,
5-2[4:1],,,,8,8,8-3[4:1],,
4-7[4:1],,,,1,1,1b,,

{1},
E

Re:MASTER

(102)
{4}4-1[4:1]/5-8[4:1],,,{8},
17,4,82,5,86,4,13,5b,5b,


7h[8:1]/8,2h[4:1],3,6h[4:1],5,4h[4:1],5,1h[8:1],2h[8:1],7h[4:1],6,3h[4:1],4,{24}5h[12:1],,4b,,,,7,,5,{8}6h[8:1],3h[4:1],2,7h[4:1],8,1h[4:1],8,4h[8:1],3h[8:1],6h[4:1],7,2h[8:1],{24}1b,,3,4,,6h[24:3],,,5,5,,,8b,,6,5,,3h[24:3],,,4,4,,,1b,,3,4,,6h[24:3],,,5,5,,,8b,,6,5,,3h[24:3],,,4,4,,,1b,,3,4,,6h[24:3],,,5,5,,,8,,,,
{96}1,2,3,4,5,6,7,8,{8}1b,,2-5[8:1]/7-4[8:1],4-1[12:1]/5-8[12:1],,,{24}37,,26,,,48,,,,15,,,3/7b,,4b/8,1/5b,,2b/6,{8},,

{8}5h[4:1],7,{24}4h[24:5],,2,,,6h[24:1],3,,,5,4,5,3,4,3,6,5,6,{8}4h[4:1],2,{24}5h[24:5],,7,,,3h[24:1],6,,,4,5,4,6,5,6,3,4,3,{8}5h[4:1],7,{24}4h[24:5],,2,,,6h[24:1],1-5[8:1],1,1,1,1,1,{8}1b,,{24}6,,8h[24:3],,,1h[24:4],,,,{8}3,24,8,57,1b,


{24}5-8[12:1],,5-2[12:1],1-6[12:1],,1-4[24:1],{8},,7,2,4h[32:5],{32},2,3,4,{8}5h[32:5],{32},7,6,5,{8}4h[32:5],{32},2,3,4,{8}5h[32:5],{32},7,6,5,{4}4b,{24}4-1[12:1],,4-7[12:1],8-3[12:1],,8-5[24:1],{8},,2,7,5h[32:5],{32},7,6,5,{8}4h[32:5],{32},2,3,4,{8}5h[32:5],{32},7,6,5,{8}4h[32:5],{32},2,3,4,{4}5b,

{8}6,6h[24:6],{24}8,,8h[24:6],,,1,1h[24:6],,,3,,3h[96:40],{8},{32},1,8,7,{8}6h[8:3],{32},8,1,2,{8}3h[8:3],{32},1,8,7,{8}6h[8:3],{32},8,1,2,{8}3h[8:1],,3,3h[24:6],{24}1,,1h[24:6],,,8,8h[24:6],,,6,,6h[24:4],{8},,57,46,35,24,{24}24,35,46,57,,,75,64,53,{8}42,


{24}6,,5,,,24,,,3,4,,6,57,,,24,,,7,,12,,,3,4,,,1,,6,5,,,8,,3,4,,5,6,,2,,,78,,,4,56,,5,34,,,,,8,1,,,6,,3,,,5,,,4,,,4,7,,5,6,,,2,,4,3,,,1,,3,6,,8b,,,,,,7,
{16}2,1,3,7,8,6,2,,,56,,34,,5,2,,,4,7,,,1,7,5,{24}8,,2,,4,,{16},,6,1,3,8,{24},,7b,,,2b,,,,{16},4,35,5,46,,{24},,18,{4}37,26,{24}4-1[12:1]/5-8[12:1],,,45,,45,{8},,

{24}7,,6,5,,48,7,,6,15,,8,7,,6,,,2b/4b,,,1b/3b,,,,2,,3,4,,57,6,,5,24,,3,4,,,2b/6b,,,,,3b/7b,,,,2,,3,4,,51,2,,3,84,,1,2,,3,,,7b/5b,,,8b/6b,,,,,,2h[24:3],1h[24:3],,,,,7h[24:3],8h[24:3],,,3h[24:3],,4h[24:3],,,6h[24:3],{4}5h[24:3],
{24}2,,3,4,,51,2,,3,84,,1,2,,3,,,7b/5b,,,8b/6b,,,,7,,6,5,,42,3,,4,75,,6,5,,,7b/3b,,,,,6b/2b,,,,7,,6,5,,48,7,,6,15,,8,7,,6,,,2b/4b,,,1b/3b,,,,,,7h[24:3],8h[24:3],,,,,2h[24:3],1h[24:3],,,6h[24:3],,5h[24:3],,,3h[24:3],{4}4h[24:3],


{24}5-8[12:1],,5-2[12:1],4-7[12:1],,4-1[12:1],{8},,6h[24:5],{24},,3,{8}4,5,{24}4-1[12:1],,4-7[12:1],5-2[12:1],,5-8[12:1],{8},,3h[24:5],{24},,6,{4}5b,{24}8-5[12:1],,8-3[12:1],1-6[12:1],,1-4[12:1],{8},,7h[24:5],{24},,2,{8}1,8,
{24}57,,46,,,18,,,24,35,,,6b/2b,,8b/4b,5b/1b,,7b/3b,{4},

,,,,

E

  • Re:MASTER譜面のノーツの配置ミス、SLIDEの速度の修正を行いました。 -- けもがみ (2026-05-25 15:10:14)
名前:
コメント:

タグ:

+ タグ編集
  • タグ:
最終更新:2026年10月04日 17:51