アットウィキロゴ

でらっくmaimai♪てんてこまい!

アーティスト やしきん feat.でらっくま(CV:三森すずこ)

BPM BASIC ADVANCED EXPERT MASTER Re:MASTER
178 4 7+ 10 12+ -

EXPERT MASTER Re:MASTER
譜面制作者 Jack はっぴー -

BASIC


ADVANCED


EXPERT

(178)
{4}3/4,1,3/4,1,6/5,8,6/5,8,5/4,2,5/4,7,
{8}4xh[4:1]/5xh[4:1],,,4x>1[8:1]/5x<8[8:1],,,,,
{4}1/2,5,2/1,5,8/7,4,7/8,4,8qq5[2:1]/1pp4[2:1],,,,2-6[8:1],,7-3[8:1],,1,8,7/2,
{8}3/4,4/3,,6/5,,7/2,7b/2b,,,,1/2,,3,,
{8}4,4,5,,{4}8/7,6,
{8}5,5,4,,{4}1/2,3,
{8}4,4,5,,8/7-4[8:1],,,,1-6[8:1],,,,8/7,,6,,
{8}5,5,4,,{4}1/2,3,
{8}4,4,5,5,,5/4,4/5,,8xh[4:1]/7xh[4:1],,,8/7,,5/4,5/4,,1xh[4:1]/2xh[4:1],,,,
{4}3,4,6/5,7,6,5/4,3,4,5q4[2:1]/6<3[2:1],,,,2,3,4/5,6,5,4/3,
{8}2xh[4:1]/1xh[4:1],,,5xh[4:1]/6xh[4:1],,,8xh[4:1]/7xh[4:1],,,4xh[4:1]/3xh[4:1],,,
{4}1x/8x,2,5/4,7,8-5[8:1]/1-4[8:1],,6x/3x,,8/1,7,5/4,2,
{4}8/1h[2:1],,3,3/4h[2:1],,5,5/6,,1/8h[2:1],,6,6/5h[2:1],,4,4/3,,
{4}8/1h[2:1],,3,3/4h[2:1],,5,6/5,,8/1,2,3,4,5,6,6/5,5/4,
{4}4p5[2:1]/3>6[2:1],,,,8/1,7/2,6/3,5/4,E2/B2,E8/B7,B3/E4,B6/E6,
{4}4-8[8:1],7x,6-2[8:1],4x,3-8[8:1],7x,6,5,
{4}4/3,2h[4:1],4h[4:1],5h[4:1],7h[4:1],1,B8/Cf/B4,,3/6h[2:1],2,1-5[8:1],,6/3h[2:1],
{8}7x,7x,7x,,
{4}2/6,3/4,1,6/5,8,B3/E4,B6/E6,E2/B2,E8/B7,1-5[8:1],7x,8<5[8:1],3x,1>4[8:1],5x,6,7,
{4}8/1,2h[4:1],3h[4:1],4h[4:1],5-8[8:1],1,
{2}1b,1/2>5[8:1],8/7<4[8:1],
{8}1x,8x,1x,7x/2x,,,,,
{4}5/4,4/3,5/6,4/2,5/7,5/2,4/7,1/5,
{16}7xh[16:3],,,6xh[16:3],,,5x,,2xh[16:3],,,3xh[16:3],,,4x,,
{4}5x/4x>5[2:1],,,,4h[4:1],5,6h[4:1],5,2h[4:1],3,
{8}7,7,1,,{4}5h[4:1],4,3h[4:1],4,7h[4:1],6,
{8}2,2,8,,{4}3h[4:1],4,6h[4:1],5,2h[4:1],1,7h[4:1],8,
{2}1/2>5[8:1],8/7<4[8:1],1/2q6[8:1],8/7p3[8:1],
{4}E2/B1,B3/E4,B5/E6,E8/B7,{8},5x/4x,,,
{2}8b/1b,6h[1:1],B5/B4,3h[1:1],B5/B4,7h[1:1],B6/B5,2h[1:1],B3/B4,
{4}7,6,5,4/3,2,3,4,5/6,7,6,5/4,4/3,2,3,4/5,5/6,7h[4:1],5h[4:1],4h[4:1],2h[4:1],
{8}8x,8x,1x,1x,8x,8x,1x,,{4}8/7,2/1,
{8}5/4,5/4,,7/2,7/2,,
{4}E5,C,E1,5-1[8:1],2x,3-7[8:1],5x,6-1[8:1],2x,3,4,
{4}6/5,7h[4:1],5h[4:1],4h[4:1],2h[4:1],8,B1/B5/Cf,,3/6h[2:1],2,1-5[8:1],,6/3h[2:1],
{8}7x,7x,7x,,
{4}2/6,5/4,7,4/5,2,B6/E6,B3/E4,B7/E8,E2/B2,
{4}8-4[8:1],2x,1>4[8:1],6x,8<5[8:1],4x,3,2,1/8,7h[4:1],6h[4:1],5h[4:1],4-1[8:1],8,
{2}8b,8/7<4[8:1],1/2>5[8:1],
{8}8x,1x,8x,7x/2x,,,,,
{4}5/4,5/6,4/3,5/7,4/2,4/7,5/2,4/8,
{16}2xh[16:3],,,3xh[16:3],,,4x,,7xh[16:3],,,6xh[16:3],,,5x,,
{4}4x/5x<4[2:1],,,,5/4,2,4/3,1b,5/4,7,6/5,8b,4/3,1,6/5,8,
{8}4xh[4:1]/3xh[4:1],,,3x>8[8:1]/4x<7[8:1],,,,,
{4}5/4,7,6/5,8b,4/5,2,3/4,1b,5/6,8,4/3,1,
{8}5xh[4:1]/6xh[4:1],,,6x<1[8:1]/5x>2[8:1],,,,,
{4}E2,E8,E3,E7,E4,E6,E3,E7,E2,E8,E3,E7,Cfh[2:1],
E

MASTER


Re:MASTER


名前:
コメント:

タグ:

+ タグ編集
  • タグ:
最終更新:2026年04月30日 23:35