アットウィキロゴ

ブリキノダンス

アーティスト 日向電工

BPM EASY BASIC ADVANCED EXPERT MASTER Re:MASTER
172 3 5 7+ 10+ 12 13

EXPERT MASTER Re:MASTER
譜面制作者 サファ太 緑風 犬三郎 はっぴー

EASY


BASIC


ADVANCED


EXPERT

(172)
{4}46,46,46,46,
{4}46,46,{2}4h[4:1]/6h[4:1],
{4}35,35,35,35,
{4}35,26,17,8h[4:1],
{2}1b,

{4}35,{8}4,4h[4:1],,6,{4}6h[4:1],
{4}5,4,3,25,
{4}46,{8}5,5h[4:1],,3,{4}3h[4:1],
{4}4,5,6,47,
{4}3h[8:3],{8}5,5,,46,{4}46,
{4}7,5,4,35,
{4}6h[8:3],{8}4,4,,35,{4}3>6[2:1]/5,
{2},{4},45,

{4}24,3,{8}5,5,{4}4,
{4}57,6,{8}4,4,{4}5,
{4}3h[4:1],4,6h[4:1],5,
{4}47,36,{2}2h[4:1]/5h[4:1],
{4}3h[1:1],4,5,4,
{4}4,45,56,47,
{4}2h[4:1],1,7h[4:1],8,
{4}17,28,17,28,

{1}1b>7[4:3]/7,
{2},{4}1,18,
{4}24,{8}3,3h[4:1],,5,{4}5h[4:1],
{4}4,34,25,1,
{4}7h[4:1],{8}1,1,,28,{4}28,
{4}3,1,8,17,
{4}2h[4:1],{8}8,8,,17,{4}17,
{8}8,8,1,1,{4}18,2b/7b,

{4}13,2,{8}8,8,{4}1,
{4}68,7,{8}1,1,{4}8,
{4}2h[4:1],1,7h[4:1],8,
{4}16,27,{2}3h[4:1]/8h[4:1],
{4}2h[1:1],1,8,1,
{4}1,18,78,16,
{4}7h[4:1],5,2h[4:1],4,
{4}35,46,25,47,

{4}2b/5h[4:7],2,2,2,
{4}3,3,4,4,
{4}3h[4:7]/6b,6,6,6,
{4}5,5,4,4,
{4}1h[4:7]/6b,6,6,6,
{4}7,7,8,8,
{4}24,45,57,18,
{2}7-4[8:1]/2-5[8:1],2b/7b,

{4}45,12,{8}3,3,{4}24,
{4}45,78,{8}6,6,{4}57,
{4}2h[4:1]/4,3,5/7h[4:1],6,
{4}1h[4:1],8<4[4:1],{2}2,
{4}12,56,{8}3,4,{4}35,
{4}78,34,{8}6,5,{4}46,
{4}2h[4:1]/5,3,4/7h[4:1],6,
{2}1-4[8:1]/8-5[8:1],3b/6b,

{4}12,3q8[4:1]/4^7[4:1],{2},
{4}16,3^8[4:1]/4p7[4:1],{2},
{4}56,24,18,57,
{4}24,18,{2}2b/7b,
{8}3,3,{4}12,{8}6,6,{4}7-4[8:1]/8,
{4}1-5[8:1],8,{2}47,
{4}25,47,16,38,
{4}1/7-4[8:1],3>7[4:1],{2}5b,

{8}6,6,4,4,5,5,3,3,
{8}4,4,2,2,{4}4h[4:1],1,
{8}2,2,4,4,3,3,5,5,
{8}4,4,6,6,{4}5h[4:1],8b,
{8}7,7,4,4,6,6,3,3,
{8}5,5,2,2,{4}4h[4:1],1,
{8}2,2,5,5,3,3,6,6,
{8}4,4,7,7,{4}5h[4:1],8b,

{4}57,{8}12,12,{4},12,
{4},{8}78,78,{4},78,
{4},{8}12,12,{4},12,
{4},{8}18,18,{4},18,
{4}24,{8}78,78,{4},78,
{4}57,{8}12,12,{4},12,
{4}18,18,{8}18,18,{4}1/8>5[8:3]*-5[8:3],
{2},{4},45,

{4}36,1b/8b,{8}2,1,{4}38,
{4}45,78,{8}6,5,{4}47,
{4}1/2-5[8:1],8,7-4[8:1],8,
{4}12,3>6[4:1]/4,{2}5,
{8}3,4,{4}25,{8}6,5,{4}47,
{2}2-5[8:1]/6-1[8:1],37,
{4}24,57,{8}34,34,{4}25,
{2}3b/7b,{8},12,{4}12,

{4}3h[8:3]/4,{8}8,8,,17,{4}17,
{4}7h[4:1],5h[4:1],4h[4:1],3,
{4}5/6h[8:3],{8}1,1,,28,{4}28,
{4}2h[4:1],4h[4:1],5h[4:1],7,
{4}1/6h[8:3],{8}5,5,,24,{4}24,
{4}3h[4:1],1h[4:1],8h[4:1],6,
{4}27,{8}3,3,,6,{4}6,
{4}45,4h[8:3]/5h[2:1],{2},
E

MASTER

(172)
{4}5/6h[2:3],5,5,5,
{4}5,5,{16}5,,,45,,,{8}34,
{4}3h[4:3]/4,4,4,4,
{8}5,5,4,4,{4}5-8[8:1],4,
{2}1b,

{4}3/7-5[8:1],2-4[8:1],{8}8,8,4,4,
{4}5,3^6[8:1],8,18,
{4}2-4[8:1]/6,7-5[8:1],{8}1,1,{4}5,
{8}4,4,{4}6^3[8:1],1,18,
{4}2/7-5[8:1],4-2[8:1],{8}8,8,{4}4,
{8}5,5,{4}3^6[8:1],8,18,
{4}2-4[8:1]/7,5-7[8:1],{8}1,1,{4}5,
{8}4,4,{4}6^3[8:1],{8}1,1,{4}18,

{4}1-5[8:1],8-4[8:1],1,27,
{4}3^6[8:1],7,{8}1,1,{4}18,
{2}2-4[8:1]/6-4[8:1],3-5[8:1]/7-5[8:1],
{4}26,37,26,37,
{4}8^5[8:1],1^4[8:1],8,27,
{4}6^3[8:1],2,{8}8,8,{4}18,
{2}3-1[8:1]/7-5[8:1],2-4[8:1]/6-8[8:1],
{4}37,26,37,26,

{4}3/7-5[8:1],3-1[8:1],{8}8,8,{4}4,
{8}6,6,{4}3^8[8:1],{8}6,6,{4}56,
{4}2-4[8:1]/6,6-8[8:1],{8}1,1,{4}5,
{8}3,3,{4}6^1[8:1],{8}3,3,{4}34,
{4}3/8-6[8:1],4-2[8:1],{8}8,8,{4}4,
{8}6,6,{4}3^8[8:1],{8}6,6,{4}56,
{4}1-3[8:1]/6,5-7[8:1],{8}1,1,{4}5,
{8}3,3,{4}6^1[8:1],{8}3,3,{4}34,

{4}5-8[8:1],4-1[8:1],5,27,
{4}3^6[8:1],7,{8}1,1,{4}18,
{2}1-4[8:1]/5-8[8:1],4-1[8:1]/8-5[8:1],
{4}26,37,26,37,
{8}4,4,{4}5s1[8:3],{2},
{4}3^6[8:1],7,{8}8,8,{4}18,
{2}1-5[8:1]/8-6[8:1],1-3[8:1]/8-4[8:1],
{4}26,37,26,37,

{4}56,56,56,{8}56,45,
{4}34,34,34,{8}34,34,
{4}34,34,34,{8}34,45,
{4}56,56,56,{8}56,56,
{4}47,47,47,{8}47,36,
{4}25,25,25,{8}25,36,
{4}47,{8}47,36,{4}25,25,
{4}47,25,1b/8b,45,

{8}3-6[8:1],3,7-2[8:1],7,3,3,{4}24,
{8}6-3[8:1],6,2-7[8:1],2,6,6,{4}57,
{8}3-6[8:1],3,7-2[8:1],7,3,3,24,1,
{4}1^4[8:1],5^8[8:1],{8}1,1,{4}18,
{8}6-3[8:1],6,2-7[8:1],2,6,6,{4}57,
{8}3-6[8:1],3,7-2[8:1],7,3,3,{4}24,
{8}6-3[8:1],6,2-7[8:1],2,6,6,57,8,
{4}8-5[8:1],1-4[8:1],{8}8,8,{4}18,

{8}2-5[8:1],2,6-1[8:1],6,3,3,{4}24,
{8}7-4[8:1],7,3-8[8:1],3,6,6,{4}57,
{8}2-5[8:1],2,6-1[8:1],6,3,3,24,1,
{4}1-5[8:1],8-4[8:1],{8}1,1,{4}18,
{8}7-4[8:1],7,3-8[8:1],3,6,6,57,8,
{4}8h[4:1],7<1[4:1],{2},
{4}16,{8}16,2,38,7,{4}16,
{4}27,4>5[8:3],{2}5,

{8}7-4[8:1],7,1,1,8,8,1,7,
{8}2-5[8:1],2,8,8,1,1,8,2,
{8}7-3[8:1],7,1,1,8,8,1,7,
{8}2-6[8:1],2,8,8,1,1,{4}27,
{8}2-6[8:1],2,7-4[8:1],7,1,1,8,2,
{8}7-3[8:1],7,2-5[8:1],2,8,8,1,7,
{8}2-6[8:1],2,7-4[8:1],7,1,1,8,2,
{8}7-3[8:1],7,2-6[8:1],2,8-4[8:1],8,{4}1,

{4}8b,{8}18,18,{4},18,
{4}45,{8}18,18,{4},18,
{4}56,{8}18,18,{4},18,
{4}34,{8}18,18,{4},18,
{4}45,{8}18,18,{4},18,
{4}45,{8}18,18,{4},18,
{4}18,18,{8}18,18,{4}18,
{8}18,18,{4}18,18,4^1[8:1]/5^8[8:1],

{4},2b/7b,{8}6,6,{4}57,
{8}1-4[8:1],1,7-2[8:1],7,3,3,{4}24,
{8}8-5[8:1],8,2-7[8:1],2,6,6,57,8,
{4}8-4[8:1],1-5[8:1],{8}8,8,{4}18,
{8}1-4[8:1],1,7-2[8:1],7,3,3,24,1,
{4}1h[4:1],2>8[4:1],{2},
{8}18,18,{4}18,27,27,
{8}45,45,{4},{8},18,{4}18,

{4}2-5[8:1],7-4[8:1],{8}3,3,{4}8,
{4}2-6[8:1],5-8[8:1],{8}1,1,{4}26,
{4}7-4[8:1],2-5[8:1],{8}6,6,{4}1,
{4}7-3[8:1],4-1[8:1],{8}8,8,{4}37,
{4}2-5[8:1],7-4[8:1],{8}3,3,{4}8,
{4}2-6[8:1],5-8[8:1],{8}1,1,{4}26,
{1}1h[8:13],
{2},{8},8,{4}18,
E

Re:MASTER

(172)
{4}45,45,67,67,
{4}18,18,{16}24,,,45,,,{8}57,
{4}18,18,67,67,
{8}45,45,36,36,27,27,{4}1/8-4[8:1],
{2}1b,

{16}3h[16:3]/8,,,4,{8}3,25,6,5,7,6,
{8}4^1[8:1],5,6,6,5,37,{4}37,
{16}1/6h[16:3],,,5,{8}6,47,3,4,2,3,
{8}5^8[8:1],4,3,3,4,26,{4}26,
{16}3h[16:3]/8,,,4,{8}3,25,5,4,7,5,
{8}4^1[8:1],5,6,6,1,37,{4}37,
{16}1/6h[16:3],,,5,{8}6,47,4,5,2,4,
{8}5^8[8:1],4,3,3,8,26,{4}26,

{8}37,{16}6,5,{8}6,4,{2}3^6[8:1],
{8}8,8,{4}1^4[8:1],5^8[8:1],1,
{8}3,3,{4}24,{8}6,6,{4}57,
{8}3,24,6,57,{2}4^1[8:1]/8^5[8:1],
{4}2h[8:1]/4h[8:1],5>8[4:1]/7h[8:1],{2},
{2}4^1[8:1]/5p8[8:1],{8}67,67,{4}58,
{16}3,4,{8}3,{4}25,{16}6,5,{8}6,{4}47,
{8}3h[4:1]/5,4,5h[4:1],4,3h[4:1],4,5,4,

{4}2/7-4[8:1],2-5[8:1],8-4[8:1],1,
{8}45,45,36,3/6-3[8:1],2,1,{4}1,
{16}3h[16:3]/8,,,4,{8}3,25,5^8[8:1],4,2,3,
{8}4^1[8:1],5,6,6,1,37,{4}37,
{16}2h[16:3]/5,,,1,{8}2,38,8^5[8:1],1,3,2,
{8}1^4[8:1],8,7,7,4,26,{4}26,
{16}4/7h[16:3],,,8,{8}7,16,1^4[8:1],8,6,7,
{8}8^5[8:1],1,2,2,5,37,{4}37,

{8}26,{16}3,4,{8}3,5,{2}6^3[8:1],
{8}1,1,{4}8^5[8:1],4^1[8:1],8,
{8}6,6,{4}57,{8}3,3,{4}24,
{8}6,57,3,24,{2}1^4[8:1]/5^8[8:1],
{4}5h[8:1]/7h[8:1],2h[8:1]/4z8[16:3],{2},
{2}4q1[8:1]/5^8[8:1],{8}23,23,{4}14,
{16}6,5,{8}6,{4}57,{16}3,4,{8}3,{4}24,
{8}6h[4:1],5,4h[4:1],5,6h[4:1],5,3,2,

{4}1h[1:1]/5b,4,4,{8}4,4,
{4}4,{8}24,24,45,45,57,57,
{4}4/8h[1:1],5,5,{8}5,5,
{4}5,{8}57,57,45,45,24,24,
{4}1h[1:1]/5,4,3,{8}3,3,
{4}4,{8}23,23,45,45,67,67,
{4}5/8h[4:3],{8}5,5,{4}6,5>8[8:3],
{8}6,6,6,6,{4}2b/7b,45,

{8}16,{16}3,4,{8}3^8[8:1],3,6v1[8:1],6,{4}4,
{8}38,{16}6,5,{8}6^1[8:1],6,3v8[8:1],3,{4}5,
{8}16,{16}3,4,{8}3^8[8:1],3,6v1[8:1],6,2^5[8:1],2,
{8}7^2[8:1],7,4^7[8:1],4,8,8,{4}16,
{8}38,{16}6,5,{8}6^1[8:1],6,3v8[8:1],3,{4}5,
{8}16,{16}3,4,{8}3^8[8:1],3,6v1[8:1],6,{4}4,
{8}38,{16}6,5,{8}6^1[8:1],6,3v8[8:1],3,7^4[8:1],7,
{8}3^8[8:1],3,7,7,1,8,{4}27,

{8}38,{16}6,5,{8}7^4[8:1],7,3v8[8:1],3,{4}5,
{8}16,{16}3,4,{8}2^5[8:1],2,6v1[8:1],6,{4}4,
{8}38,{16}6,5,{8}7^4[8:1],7,3v8[8:1],3,7^4[8:1],7,
{8}2^7[8:1],2,5^2[8:1],5,1,1,{4}27,
{8}16,{16}3,4,{8}2^5[8:1],2,6v1[8:1],6,4-8[8:1],4,
{4}5-1[8:1],2^7[8:1],6,45,
{4}1h[8:1]/6h[8:1],{8}38,7,16,3,47,3,
{8}25,6,4-8[8:1]/7,3,24,1,{4}1b/8b,

{16}2,1,2,1,3,8,3,8,4,7,4,7,5,6,5,6,
{16}3,4,3,4,2,5,2,5,1,6,1,6,8,7,8,7,
{16}5,7,5,7,4,6,4,6,3,5,3,5,2,4,2,4,
{16}3,4,3,4,2,5,2,5,3,4,2,5,{4}1b,
{16}7,8,7,8,6,1,6,1,5,2,5,2,4,3,4,3,
{16}6,5,6,5,7,4,7,4,8,3,8,3,1,2,1,2,
{16}4,2,4,2,5,3,5,3,6,4,6,4,7,5,7,5,
{16}6,4,5,3,4,2,3,1,4,2,5,3,6,4,7,5,

{1}8b<1[4:13],
{1},
{1},
{2},{4},1>8[4:7],
{1},
{1},
{4}18,18,{8}18,18,{4}18,
{8}18,18,{4}1^4[8:1]/8^5[8:1],18,5v8[8:1]/4v1[8:1],

{4}4b/5b,2b/7b,{2}4-8[8:1]/2-5[8:1],
{8}16,{16}7,8,{8}6v1[8:1],6,3^6[8:1],3,{4}7,
{8}48,{16}2,1,{8}3^8[8:1],3,6^1[8:1],6,4p7[8:1],4,
{8}5q2[8:1],5,3^6[8:1],3,8,8,{4}27,
{8}16,{16}7,8,{8}6v1[8:1],6,3^6[8:1],3,7^2[8:1],7,
{4}4-8[8:1],7p3[8:1],{8}2,2,{4}18,
{8}18,27,36,45,{4}45,45,
{8}27,2h[8:3]/7h[8:3],{4},{8},18,{4}18,

{16}3h[16:3]/8,,,4,{8}2-6[8:1],2,5<2[4:1],5,4,4,
{8}4-1[8:1],5,6,6,1,37,{4}37,
{16}1/6h[16:3],,,5,{8}7-3[8:1],7,4>7[4:1],4,5,5,
{8}5-8[8:1],4,3,3,8,26,{4}26,
{16}3h[16:3]/8,,,4,{8}2-6[8:1],2,5<2[4:1],5,4,4,
{8}4-1[8:1],5,6,6,1,37,{4}37,
{4}15,,{8},{24}1,2,3,{4}4h[8:1],
{8},{24}8,7,6,{4}5h[8:1],{8},18,{4}18,
E

名前:
コメント:

タグ:

+ タグ編集
  • タグ:
最終更新:2026年03月11日 06:58