| アーティスト |
曲:広川恵一 (MONACA)/歌:オンゲキシューターズ |
BASIC
ADVANCED
EXPERT
MASTER
(140){4}2/6v1[4:3],2,3,3,4,4,5,5,2/6p1[4:3],2,3,3,4,4,{16}5x,,,4x,,,3/5,,{4}3/5,4-1[4:1]*v7[4:1]/6,,,8,8v3[4:1]*p2[4:1],,,1pp4[1:1],,6>5-8[2:1],,,,2x/6x,,3/4-6[8:1],3,5/7-1[8:1],5,3V57[4:1],7V53[4:1],1-5[8:1],,1>4[8:1],,1<6[8:1],,8>4[4:1],4<8[4:1],8,4,2q6[4:1]/5,6q2[4:1],7,8,4qq5[8:3],6pp5[8:3],,,Ch[2:1],,,,
8x<2[2:3],,,,C,,E1,,8x/1x>7[2:3],,,,C,,E5,,2-5[8:1]/6-1[8:1],,5-2[8:1]/1-6[8:1],,2>5[8:1]/6<1[8:1],,1/5,1qq6[2:1]/5qq2[2:1],,,,4x/8x,4bh[2:1]/8bh[2:1],,,6x/5>2[8:1],
{4}5x/6<1[8:1],6x/5p1[8:1],5x/7V13[4:1],7x/3,4,1p5[8:1]*q5[8:1],,3x/7x,2/8,4>1-5[4:1]/6<1-5[4:1],,,4/6,4/6,2/8,1p5[8:1]/2,1x/2>5[8:1],1<6[8:1]/2x,1x/2q6[8:1],2x/8V64[4:1],8x/4,3,2-5[8:1]/5-7[8:1],,8<4[4:1],4>8[4:1],8,4,2/6,7v4[8:1],3/7,1b-4[8:1]/2b-4[8:1],1x-6[8:1]/2x-6[8:1],1x-4[8:1]/2x-4[8:1],1x-6[8:1]/2x-6[8:1],1x-4[8:1]/2x-4[8:1],1x/2x,1/2,1/8,8b-5[8:1]/7b-5[8:1],8x-3[8:1]/7x-3[8:1],8x-5[8:1]/7x-5[8:1],8x-3[8:1]/7x-3[8:1],8x/7x<1[4:1],,,5xpp5[4:1]b*qq5[4:1]b,,{8},,4,4,{16}5,,,3/6,,,2/7,,{4}2-5[8:1]/7-4[8:1],2/7,3q4<2[4:3]b/6,Cf,,,,4/6,3/7>2[8:1],4,5,4-1[8:1]/5-8[8:1],
(134){4}4bx/5bx,,8-4[8:1],4,3h[4:1],1h[4:1],{8}8,8h[4:1],,6,6h[4:1],,{4}4p2[2:1],8h[2:1],,,2/8,{8}7,7h[4:1],,5,5h[4:1],,{4}3h[4:1],1-5[8:1],5,6h[4:1],8h[4:1],{8}1,1h[4:1],,3,{4}3h[4:1],5<8[4:1],4>1[4:1],,8h[4:1],1,A1/A8/D1,,{4}2h[2:1],,1,1-4-7q3-6-1[2:5],{1},,,{4}8h[2:1],,6,5-8-3q7-2-5[2:5],{1},,,{4}6-1[2:1],4,4,4,1-6[2:1]/4,4,4,4,3/5-1[2:1],3,3,3,3/1-5[2:1],3,3,3,2/4-8[2:1],2,2,2,1/8-4[2:1],1,1,1,{8}2,3,4,5,6,7,8<2[2:1],,{4}Chf[2:1]/B5/B4,,
(140){4},1x<6[8:1]/2x,1x/2>5[8:1],1p5[8:1]/2x,1x/3V57[4:1],3x/7,8,5p1[8:1]*q1[8:1],,3/7,4/6,2>5-1[4:1]/8<5-1[4:1],,,2/8,2/8,4/6,5p1[8:1]/6,5x/6<1[8:1],5>2[8:1]/6x,5x/6q2[8:1],6x/4V28[4:1],4x/8,7,1-3[8:1]/6-1[8:1],,4>8[4:1],8<4[4:1],4,8,2>5[8:1]/5,6h[4:1],Chf[4:1],A3/B3/B4/B5/B6/A6,1-4[8:1]b/8-5[8:1]b,E1f/A1/A8,7x-5[8:1]b/8x-4[8:1]b,7x-3[8:1]b/8x-2[8:1]b,7x-5[8:1]b/8x-4[8:1]b,7x/8x,1/8,2b-4[8:1]b/1b-5[8:1]b,2x-6[8:1]b/1x-7[8:1]b,2x-4[8:1]b/1x-5[8:1]b,2x-6[8:1]b/1x-7[8:1]b,2x>8[4:1]b/1x,,,4pp4[4:1]b*qq4[4:1]b,,,{8}8,8,{16}1,,,2/7,,,3/6,,{4}3-8[8:1]/6-1[8:1],,3/6p5>7[4:3]b,Cf,,,,3/5,2<7[8:1]/6,5,4-8[8:1],3bh[4:9]/4-6-3-7-2-8[1:2]b,E
Re:MASTER
- MASTER譜面を追加しました。修正等ありましたらよろしくお願いします。 -- Sugar (2026-06-29 23:36:28)
最終更新:2026年06月29日 23:36