BASIC
(142)
{1},1xh[1:1]/8xh[1:1],,1,2,3,4,5,6,7,8/1,{2}8,8,7,,6,6,6/5,,4,4,3,,2,2,2/1,,{1}1h[1:1]/8h[1:1],,B1,B8,B2,B7,Ch[1:1],,
{4}1b,1,{2}1,2,2,3,3,3/4,,{4}5,5,{2}5,6,6,7,7,7/8,,{4}8x,8,{2}8,7,7,6,6,5/4,,{4}4,4,{2}4,3,3,2,2,1/8,1/8,
1h[1:1]/8h[1:1],,{1},1-5[4:3],,8-4[4:3],,2-6[4:3],,7-3[4:3],,{2}1,1,1/8,,8,8,8/1,,{1}8h[1:1]/7h[1:1],,6h[1:1]/5h[1:1],,4h[1:1]/3h[1:1],,2h[1:1]/1h[1:1],,1h[1:1]/8h[1:1],,
{4}1x,1bx,1x,,2,,2,,3,3,3,,{1}3/4,
{4}5,5,5,,6,,6,,7,7,7,,{1}7/8,{4}8b,8,8,,7,7,7,,6,6,6,,5/4,,5/4,,4,4,4,,3,3,3,,2,2,2,,1/8,,1/8,,
7,7,7,,8/1,,8/1,,2b/7b
E
ADVANCED
(142)
{1},,,7-4[4:3],,2-5[4:3],,{4}6,6,6,,5,5,5,,4,4,4,,4/5,,4/5,,6,6,6/5,,7,7,7/8,,1,1,1/2,,3/4,3/4,3/4,,3,3,3/4,,2,2,2/1,,8,8,8/7,,5/6,5/6,5/6,,3/4,3/4,3/4,,4/5,4/5,4/5,,{2}3h[2:1],4h[2:1],5h[2:1],6,6h[2:1],5h[2:1],4h[2:1],3,2,3,4,4/5,
{4}6bx,6,7,7,8,8,1/2,,3,3,2,2,1,1,8/7,,7,7,6,6,5,5,4/3,,2,2,3,3,4,4,5/6,,6x,6,7,7,8,8,1/2,,3,3,2,2,1,1,8/7,,7,7,6,6,5,5,4/3,,2,2,3,3,4,4,5/6,,
{1}4x>1[4:3]/5x^8[4:3],,{4}B2,B3,B4,,B7,B6,B5,,B2,B3,B4,B5,B6,B7,C,,B8,B7,B5/B6,,B1,B2,B3/B4,,B6,B5,B4,B3,Cf,,,,{1}8-4[4:2],3-6[4:2],7-4[4:2],{4}3,,3/4,,5,5,6,,7,7,8,,1,1,2,,3,3,3/4,,4,4,3,,2,2,1,,8,8,7,,6,6,6/5,,3,3,3/4,,4x/5x,4x/5x,4x/5x,,
6,6bx,7/8,7/8,1,1,1/2,,3,3,1/2,1/2,8,8,8/7,,7,7,6/5,6/5,4,4,4/3,,2,2,3/4,3/4,5,5,5/6,,6,6,7/8,7/8,1,1,1/2,1/2,3,3,1/2,1/2,8,8,8/7,,7,7,6/5,6/5,4,4,4/3,4/3,2,2,3/4,3/4,5,5,5/6,,
7,7,8,8,1,1,2,2,1b/8b
E
EXPERT
(142)
{2},{8},4/6x,4xh[4:1]/6xh[4:1],{4},{8}5x/7x,5x/7x,,2x/4x,2x/4x,,5/7,{4}5/7,1/8,2/4,1/8,B3/Cf/B6,{1},{2}6,6,6,{8}3/5,3/5,,2,2h[4:1],,1,1,3/8,,{8}7^4[4:1],,,,1,,2,2h[4:1],,4,4,,{4}3/5,3/5,{8}2^5[4:1],,,,8,,7,7h[4:1],,5,5,,{2}4/6,
{8}3h[4:1]/8h[4:1],,,1/6,1/6,,,{6}3x/5x,3x/5x,5x/3^8x[4:1],,{4},{16},{8},1h[4:1]/6h[4:1],,,3/8,3h[4:1]/8h[4:1],,,1/6,6/1-5[4:1],,,,7-3[4:1]{2},{1}1b>8[4:2],{4}2xh[8:1]/8xh[8:1],2x/8x,1h[8:1]/7h[8:1],1/7,{8}2,2,4,,7,7,5,,{4}5/6,7/8,1/2,4/3q5[4:3],B6f,{2},{8}7x,7xh[4:1],,8,8,,1/6,,3/8,,{4}2^5[4:1],,7h[4:1],5,2h[4:1],4,3/5,4/6,7^4[4:1],,2h[4:1],4,7h[4:1],5,4/6,5/6,{8}4h[4:1]/7h[4:1],,,2/5,2h[4:1]/5h[4:1],,,4/7,4/7,,2/5,,8b
{2},
{4}5^2[4:1]/6^1[4:1],,,3/4,5^2[4:1]/6^1[4:1],,,3/4,2h[4:1],1,7h[4:1],8,5/6,5q2[4:1]/6^1[4:1],,,3h[4:1],1h[4:1],8h[4:1],6,
{8}6h[4:1],,8,8h[4:1],,1,1,,,1x/2x,1x/2x,,4x/5x,4x/5x,,7x/8x,{1}8x/7xs3[4:2],{4}4^7[4:1]/3q8[4:1],,,5/7,4<7[4:1]/3q8[4:1],,,5/7,{1}8v6V42[4:2],{4}3/4,1-5[4:1]/2-6[4:1],,,7h[4:1],5h[4:1],4h[4:1],2,{8}2h[4:1],,4,4h[4:1],,5,5,,,4x/6x,4x/6x,,1x/8x,1x/8x,,3xb/5xb,3xb/5xb,,6x/2xqq5[4:2],,{4},,8h[4:1],
{8}4,4,3/7,3/7,2/6,2/6,,3/5,3/5,,8,8,1b/7b,,2,2,4,3,7,7,{2}5^2[4:1]*^8[4:1],{4},{8}3,3,4,4,{2}2^7[4:1],6^3[4:1],{4}1,1q5[4:1],{2},8bxh[2:1],{8}5,5,7,7,3,3,5,5,1,1,{1}4V62-8[4:2],{8},2xh[4:1],,8,8,5/7,5/7,4x/6x,4x/6x,,{4}3h[1:1],,E2,E4,6h[1:1],,E8,E6,2h[1:1],,E2,E4,7h[1:1],,E6,E5,3,3,2/4,2/4,1h[4:1],,2h[4:1]/8h[4:1],,6,6,5/7,5/7,6^3[4:1],{2},{8},2,2h[4:1],,4,4h[4:1],,5h[4:1],,7h[4:1],,1,1,2/6,,3/7,3/7,,2h[4:1]/8h[4:1],,,1h[4:1]/7h[4:1],,,,3/5,,2,2,8,8,1,1,7,{1}7<1[4:2],{8},2x/6x,2x/6x,2x/6x,{4}2xh[4:1]/6xh[4:1],,
{16}1,8,1,,{4}2bx/7bx,4/6,3/5,3^8[4:1]/4v7[4:1],,,5/6,{8}7,7,6/8,,2,2,1/3,,{4}3/4,3q8[4:1]/4<7[4:1],,,7h[4:1],5h[4:1],4h[4:1],2,{8}3,3,4,1-6[4:1]*-4[4:1],{2},{8},5/6,5/6,,1/8,1/8,,3/4,{1}4/3z7[4:2],{4}5q2[4:1]/6V82[4:1],,,2/4,5^2[4:1]/6V82[4:1],,,2/4,{1}1q5pp7[4:2],{4}5/6,8-4[4:1]/7-3[4:1],,,2h[4:1],4h[4:1],5h[4:1],7,{8}6,6,5,8^3[4:1]*^5[4:1],{2},{8},3/5,3/5,,1/8,1/8,,4/6,{4}4/6,3/7,2/6,3h[4:1]/7h[4:1],
{8},2x/8x,2x/8x,,4x/5x,4x/5x,,1bx/7bx,{4}1bx/7bx,3/5,2/8,4/6,3b/7b
E
MASTER
(142)
{2},{8},4/5,4/5,,,1bx/2bx,3bx/8bx,,7bx/8bx,1bx/6bx,,3/5,3/5,,3/4,3/4,2h[4:5],,1<3[4:3],,{1}1,{4},{2}C/E3,E1/C,C/E7,{8}E5,6/5h[4:1],,6,7,8h[8:3],5-1[8:1],,5x,,{16}2/5,,3,4,3,,6,5,7h[16:3],,,5x,,,{8}8h[4:1],,5,4,3,1h[4:1]/2-5[8:1],,2,,{16}4/7,,6,5,6,,3,4,2h[16:3],,,4x,,,{8}1h[4:1]/5,,2x,2/4,2/4,3b/5b,3/5,2/6,2/6,3h[4:1]/7h[4:1],,,4/6,5h[8:2]/6h[8:2],,,5/6,{16}7x,8x,,7x,8bx,,,,,,{8}5/7,6,5,4h[4:1]/6h[4:1],,,3/5,3h[4:1]/5h[4:1],,,3/4,{4}3/4<8[4:1],8>4[4:1],4v7[4:1],8,{16}3,,3,,8,,8,,2h[16:3],,,1,,,{2}8h[8:5]/2>7p1[8:3],{4},{8},2/6,2/6,1/7>4[4:1],7/1h[8:3],,,,,3x/5x,6,7h[4:1],5,4,3,2/5,2/5,3>5[4:3]/4<2[4:3],,{2}3/4,{8},,,3/5,,3/5,2-7[8:1]/6-3[8:1],,2/6,,E1,,{4}2-5[4:1],5-8[4:1],8-3[4:1],3^6[4:1],C,,5-1[8:1]/6-1[8:1],5/6,2-4[8:1],4-8[8:1],8-6[8:1],6p3[4:2],C,,8,3/4,{8}2h[4:1]/4h[4:1],,,4/5,5h[4:1]/7h[4:1],,,5/6,5q4[4:1]/6<3[4:1],,,,{4}E4,1x/2x,
{8}7/8h[8:1],5,2/1h[8:1],4,7/8h[8:1],5,2/1h[8:1],4,7/8,4/5,1h[4:1]/2<4[4:1],,2,,,2/8,2h[4:1]/8,7,6,3/5,,4/6,4/6,3/7,{16}7/3h[16:3],,,1h[16:3],,,8h[16:2],,7-4[8:1],,,,{8}7,1,2/5,6,4/7,3,2/5,6,3/7,2,1/8,1^4[8:1]/8^5[8:1],,1/8,,3/5,4/6,3/7,,1b/2b,3b/8b,,7b/8b,6b/1b,,3/4,2/5,,1/7s3[4:1],1h[8:3]/7,,,,,2/1h[8:1],4,7/8h[8:1],5,2/1h[8:1],4,7/8h[8:1],5,1/2,4/5,8h[4:1]/7>4[4:1],,7,,,1/7,1/7h[4:1],2,3,4/6,,3/5,3/5,2/6,{16}2/6h[16:3],,,8h[16:3],,,1h[16:2],,2-5[8:1],,,,{8}2,8,8h[4:1],4,3,2h[4:1],,1,1,3/4,5/6,5-2[8:1]/6-1[8:1],,5/6,,1x/2x,3,4/5,,7b/8b,6b/1b,,1b/2b,3b/8b,,5/6,6/5h[2:1],,8,8,1h[1:1],,2<4[4:2],,2,,,,,,
{8}3/5,3/5,,3/4h[4:1],3,3,3/4,1/2,7/8,5/6,{32}3h[16:3],,,,4,,4,,,,2h[16:3],,,,4,,4,,,,5,,,,6,,6,,,,2/8,,,,3,,3,,,,2>8[4:1]x,,2x,,,,8<2[4:1]x,,{4}8x,,1,{8}1/7,2xh[16:1],6xh[16:1],4xh[16:1],5b,5b,{16}6,5,6,,3,4,3,4,3,,5/6,,{2}7h[4:1]/8-2-7-3-5[4:2],{4},{24}7x,,,,,4x/5x,,,,,2x/4x,,{16}2,1,2,,7,8,7,,{8}2^8[8:1]/6^4[8:1],3/7,2/6,,4/8,4/8,4xh[8:1]/8xh[8:1],,{32}8bx,7x,6x,5x,,,,,8bx,7x,6x,5x,,,,,{8}8/7,6/5,4/3,2/1,{32}8bx,7x,6x,5x,4x,3x,2x,1x,{1}8>6[4:3],,{8}4/6,,{48}7h[24:9],,,,,,,,,5,,,,,,,,,{8}4,,3,3/5,,{48}2h[24:9],,,,,,,,,4,,,,,,,,,{8}5,,6,6/4,,{48}5h[24:9]/6,,,,,,,,,6,,,,,,,,,{8}7-4[8:1],,4,3,,{48}4h[24:9]/3,,,,,,,,,3,,,,,,,,,{8}2-5[8:1],,5,6,,{48}4h[24:9]/6,,,,,,,,,6,,,,,,,,,{8}7-4[8:1],,4,3,,{48}4h[24:9]/3,,,,,,,,,3,,,,,,,,,{8}2-5[8:1],,5,6,,{16}3/5,,,2,2,,5,,3,4,3,4,3,4,3,4,3,4,3,4,3,4,3,4,3,4,3,4,3b,,,,{8}2/5,2/5,,3h[4:1]/4h[4:1],,,4/5,5h[4:1]/6h[4:1],,,5/6,,7-4[8:1]/8-3[8:1],,7/8,,2/5,{16}3,4,3,,6,5,{16}7h[16:3],,,5,,,{8}3/5,,4b/3b,2b/1b,8b/7b,5q4[4:1]/6<3[4:1],,{28}E6,E7,E8,E1,E2,E3,E4f,,,,,,,,
{8}1/8,,5/6h[8:1],8,4/3h[8:1],1,5/6,8/1,3h[4:1]/4<1[4:1],,4,,,1/5,1h[4:1]/5,4,3,2h[4:1]/8h[4:1],,,1/7,1/7,{16}6/2h[16:3],,,4h[16:3],,,5h[16:2],,7-3[8:1],,,,{8}7,,2q6[8:1],1,2,,7-4[8:1],8,7,,2x/5x,3-8[8:1]/4-7[8:1],,3/4,,7x/8x,1/6/,2/5,,1b/7b,2b/8b,,1b/7b,2b/8b,,2/4,4/2<6[4:1],,6<2[4:1],,4,,4,,4/3h[8:1],1,5/6h[8:1],8,4/3h[8:1],1,5/6h[8:1],8,4/3,1/8,6h[4:1]/5>8[4:1],,5,,,8/4,8h[4:1]/4,5,6,1h[4:1]/7h[4:1],,,2/8,2/8,{16}3/7h[16:3],,,5h[16:3],,,4-7-1[4:1],,3x,,,,,,,,{4}2x/4x,1-3[8:1]*-4[8:1],1-6[8:1]*-7[8:1],1,{8}4/7,5-2[8:1]/6-1[8:1],,5/6,,1h[4:1]/2,3,4,,5b/6b,4b/7b,,3b/4b,2b/5b,,3/4,4h[4:3]/3,,2,1,8,7,6b,,,
1b/2b,8b/3b,,7b/8b,1b/6b,,7/8,7/8,,1/2,3,4/5,,4bq5[4:3]/5b<4[4:3],,4b/5b
E
Re:MASTER
最終更新:2026年03月16日 21:10