アットウィキロゴ

ラヴィ

アーティスト すりぃ

BPM BASIC ADVANCED EXPERT MASTER Re:MASTER
183 4 7 10+ 13 -

EXPERT MASTER Re:MASTER
譜面制作者 鳩ホルダー サファ太 -

BASIC


ADVANCED


EXPERT


MASTER

(183)
{1}3h[8:7]/5pp4[1:1],
{4},,2h[4:1],8x,
{8}47,47,56,56,45,45,34,34,
{4}B2/E3/B3/A3/E4/B4,B5/B6/B7/A6/E7/E6,B3/B4/B5/E4/E5/A4,1b/8b,
{8}6,5,4>1[8:1],4,7<4[8:1],7,8,,3,4,5<8[8:1],5,2>5[8:1],2,1,,6,5,4>1[8:1],4,7v4[8:1],7,8,,2,3,4,5,46,5,6,7,
{2}8/3h[4:3],4h[4:1]
{8},,,2h[2:1]/5h[2:1],
{2},3/4-6[8:1],7x/4h[4:3],
{8}6h[4:1],,,5h[2:1]/7h[2:1],
{2},5-3[8:1]/7-5[8:1],
{4}2x/4x,2/4<8[4:1],3,4,57,6/5>1[4:1],6,5xh[4:1],
{8}1,1,4,3,5,5,46,7/3h[8:5],,,,,8-4[8:1],4,8b,,35,6,1,2>4-8[4:1],,5,5,,7,1,2,6<8-4[4:1],,1,1,,2,3,5,6/4>1[8:1],,7,7h[4:1]
{4},E5/B5/E6,2-5[8:1]/6-1[8:1],,4x/8x,
{8}25,3,4,6-1<7[4:1],,5,5,,4/6x,5,4,3-8>2[4:1],,5,5,,3x/5,4,5,6-3[8:1],,1,2<4[4:3]b,,
{1}Cf,
{8}3h[8:9]/5,5,,4,4,,5,5h[4:1],
{4},35,46,57,
{8}6h[8:9]/4,4,,5,5,,4,4h[4:1],
{4},45,26,35,
{8}2h[8:9]/4,4,,3,3,,4,4h[4:1],
{4},24,35,46,
{8}56,56,4,4,3,3,24,1h[8:5]/5h[8:3],
{4},,B4/E4/B5/E5/A5/D5/A4,2b/6b,
{8}8,17,4-8[8:1],35,2x>5[8:1],1,8x,7,6,57,3,24,
{4}1x-4[8:1]/5x-8[8:1],1b/5b,
{8}7h[8:3]/3,4,5,3,2h[8:3]/5,4,5,6,
{4}4/7-3[8:1],7/1v6[8:1]*v4[8:1],1b,37,
{8}1,28,5-1[8:1],46,7x<4[8:1],8,1x,2,3,24,6,57,
{4}4-8[8:1]/3xh[4:1],4b,
{8}1-6[8:1]*-4[8:1],28,1,,37,4,26,5,
{4}4/B7/B6/E7,8w4[8:1]/B2/E3/B3,A8/E8/B8/E1,1b/7b,3/5h[4:1],4>6[4:1],6,
5<3[4:1],3,4,3-8[8:1]*<6[8:1]/5,3,4>1[8:1]*-7[8:1],4,5<8[8:1]*-2[8:1],5,
{8}1,28,3b/7b,,24,24,
{16}3-7[8:1],5,3,5,
{4}3b,5<3[4:1],3,4>6[4:1],6,5,4/6qq7[4:1],
{8}1,1,2qq3[4:1],,5,5,6[4:1],,4,3b/7b,,24,35,46,
{4}5/7h[4:1],1x,2b/6b,
{12}3,,3,
{4}5,4/6h[2:1],,
{12}5,,5,
{4}7h[2:1],5h[4:1],,
{12}7,,7,5,,5,4,,4,3,,3,4,,4,
{4}2h[4:1],8x,3b/7b,
{12}6,,6,
{4}4,3h[2:1]/5,,
{12}4,,4,
{4}3,56,8h[4:7]/4,5h[6:1],5h[6:1],4h[6:1],6h[6:1],4h[6:1],6,2b,
{2}3bxh[2:3]/5bxh[4:1],4-6-2-8<5[1:1],,,
{6}34,45,56,
{2}5-3-7-1>4[1:1]/6h[1:1],,,5bxh[4:1]/7bxh[2:1],
{4}4h[1:1],E5,E4,E6,D5,35,2h[4:1]/4h[2:1],,1h[1:1],B3/E4,B6/E6,E5,C,1s5[2:1]/7,,,,2b/8b,
{8}7-1[8:1],7,3-5[8:1],3,8x,8,7,5/6h[4:1],,
{16}4,5,3,,6,5,7,,3,4,2,,8,1,
{8}7<4[8:1],,1,1,2-5[8:1],2,1,1,8[4:1],,
{16}4x,3x,2x,1x,7x,6x,5x,4x,1x,2x,3x,4x,
{8}8b,57,4,57,8-4[8:1],57,8x,2,1,24,5,24,1-5[8:1],24,1x,,6,
{16}6,5,7,,1,8,1,,2,4,3,,6,5,6,,3,4,2,,6,5,7,,2,1,3,,7,8,
{1}6b>1s5[2:3],,
{8}4/6h[8:9],4,,5,5,,7,7V13[8:3],
{4},,5x,5x,
{8}4h[8:9]/6,6,,5,5,,3,3V17[8:3],
{4},,5x,5x,
{8}6h[8:9]/4,4,,5,5,,7,7V53[8:3],
{4},,7x,7xh[4:1],
{8}4,4,6,6,5,5,7,4h[8:3]/8h[8:5],
{4},,B4/B5/E6/E5/D5/A5/D6,3-1[8:1]/7-5[8:1],3b/7b,,2h[4:1]/6h[4:1],
{8},3h[2:1]/5h[2:1],,,,,46,46,
{4}5x/7x,5h[8:3]/8h[8:3],,3x/7x-3[8:1],1xs5[2:1],,,
{8},8,2b/6b,,1,28,5-1[8:1],46,7x<4[8:1],8,1x,2,3,24,6,57,3/4x-8[8:1],2,3b/4,,1>4[8:1]*<6[8:1],28,1,,5,5,46,3,
{4}2/E6/B6/D6/B5,8w4[8:1]/B2/B3/D3/E3,A8/B8/E1/E8,1b/7b,3/5h[4:1],4>6[4:1],6,5<3[4:1],3,4,3v8[8:1]*<6[8:1]/5,3,4v7[8:1]*>1[8:1],4,5v2[8:1]*<8[8:1],5,
{8}1,28,3b/7b,,24,24,
{16}3-7[8:1],5,3,5,
{4}3b,5<3[4:1],3,4>6[4:1],6,5,4/6qq7[4:1],
{8}8,1,2qq3[4:1],,4,5,6h[4:1],,5,3b/8b,,24,1,28,
{4}7<5[8:1]/3-7[8:1],37,8>2[8:1]/4-8[8:1],48,3pp2[4:1]/7pp6[4:1],3b/7b,
{8},1x,1,28,
{4}3h[4:1]/7,C,
{8}2,2h[8:1],6,6h[8:1],
{16}4,3,2,1,7,6,5,4,
{8}1,1h[8:1],5,5[8:1],
{16}8,1,2,3,5,6,7,8,
{8}4,4h[8:1],8,8h[8:1],
{16}4,3,2,1,7,6,5,4,
{8}2v5[8:1],2,1<6[8:1],1,4,4,35,35,6,6h[8:1],2,2h[8:1],
{16}4,5,6,7,1,2,3,4,
{8}7,7h[8:1],3,3h[8:1],
{16}1,8,7,6,4,3,2,1,
{8}5,5h[8:1],2,2h[8:1],
{16}4,5,6,7,1,2,3,4,
{8}8-4[8:1],8,2-6[8:1],2,5-1[8:1],5,4,3,2h[8:3]/8,,,4,35,46,25,47,1b/5bE

Re:MASTER


名前:
コメント:

タグ:

+ タグ編集
  • タグ:
最終更新:2026年03月12日 22:21