BASIC
ADVANCED
EXPERT
(131){1},4>1[2:1]/5h[2:3],{4}E2,C,E6,,5<8[2:1]/4h[2:3],,,,{4}E8,C,E4,,1/2h[4:3],1,3,1V35-7[4:3],,,,,8/7h[4:3],8,6,8-5-2[2:1],,,,1bx/8bx,
{8}2h[4:1],,4,5,6h[4:1],,5,4,3h[4:1],,1,8,7h[4:1],,5,4,3h[4:1]/5,,1,8,7h[4:1],,8,7,5/6h[4:1],,4,4,3/5,,1x/8x,,7h[4:1],,5,4,3h[4:1],,1,8,7h[4:1],,
1,2,3h[4:1],,5,5,4/6,,7,8,1/6,,4/7,,6,6,5/7,4,3/5,,1b/6b,,
{8}5/7,5h[2:1]/7h[2:1],,,,,5/7,,3/4,3h[2:1]/4h[2:1],,,,,3/4,,3<6[4:1],,,,7,,8z4[2:1]b,,,,,,,,3x/5x,,4/6,,7,7,5,,B4/B5/B6,,3/7,,2,2,4,,B5/B4/B3,,7h[4:1]/8h[4:1],,,
5/6,5h[4:1]/6h[4:1],,,4,3/5,2,1,8,5/7,,2-6-8-3[4:3]/4h[4:1],,{4},,,,5h[4:1],,6,5-1-7-4[4:3]/6h[4:1],,,,,E5/B4/B5,,3/6,1b/8b,
{8}3-8[8:1],,4,,1/6,2/7,3/8,,6-1[8:1],,5,,8/3,7/2,6/1,,6,6,8,8,1,1,3,,3/4,,1/2,3/8,4/7,,{2}8-4[8:1]/7-5[8:1],1-5[8:1]/2-4[8:1],8-4[8:1]/7-5[8:1],1-5[8:1]/2-4[8:1],{4}4x/5x,7h[8:1]/8h[8:1],4h[8:1]/5h[8:1],1h[8:1]/2h[8:1],4h[8:1]/5h[8:1],7/8,5-1[8:1]/6-1[8:1],,2x/8x,{8}6-3[8:1],,1,,1/2,3/8,4/7,,3-6[8:1],,8,,8/7,6/1,5/2,,3,3,1,1,8,8,6,,1-5[8:1]/7-4[8:1],,,,2b/8b,,{2}4-8[8:1]/7-5[8:1],5x-1[8:1]/2-4[8:1],4x-8[8:1]/7-5[8:1],5x-1[8:1]/2-4[8:1],{8}3x/8x,,1,2,3/4,3/4,5,6,7/8,7/8,{2}1-4[8:1]b*-6[8:1]b,7-2[8:1]b*-4[8:1]b,
{12}1b/5b,,,,B6,,E6,,,,B3,,E4,,,,C,,E5,,,,E2,,E3,,,,E7,,E6,,,,C,,B4,,,,3/5,,{4}3h[2:1]/5,,{12}4,,5,,6,,7h[12:4],,,,5,,5/7,,4/6,,3/5,,{4}2/4h[2:1],,{8}3,3,4,4,5,5,4/6,4/6,7,7,8>7[8:3],8,,,,,{1}E7/B6/B7/Chf[1:1],8bh[1:1],
{4}1-4[4:3],,,,6h[4:3],5,5,{8}5,4x,{4}4x-1[2:1],,,,{8}1/7h[2:1],,,8,8,,7x/8x,,{4}1/6-1[4:1],,,2,8/3-8[4:1],,,7,6h[4:1],5h[4:1],4h[4:1],3,1/2,7/8,1/8,2-5[8:1]/7-4[8:1],,
{8}2b/7b,,3/4,3/4,2-6[8:1]/5,,8-4[8:1],,1-5[8:1],,6,,{2}2<8[8:1]/7p3[8:1],7>1[8:1]/2q6[8:1],2<8[8:1]/7p3[8:1],7>1[8:1]/2q6[8:1],{8}3x/8x,,7,7,5,6,1x,,2/8,3/7,4b/6b-1[8:1]b,,2b-5[8:1]b,,7b-4[8:1]b,,1b,,3,3,1,1,7,7,5,5,3/4,3/4,2/5,2/5,1-5[8:1]b/6,,8<2[1:2],,{1},,1h[1:1],C/E5/B4/B5,E
MASTER
(131){1},2bh[1:1]/6b,{16}4,2,4,2,5,3,5,3,6,4,6,4,6,,5/6,,{1}7bh[1:1]/3b,{16}5,5,7,7,4,4,6,6,2,5,3,4,1b,,,,{8}2-4[8:1]/4,4,5,6,7-5[8:1]/5,5,4,3,{16}2,4,3,5,4,6,5,7,4,6,3,5,2,,1/5,,{8}6v8[8:1]/8,8,1,2,3v1[8:1]/1,1,8,7,{48}D2,A2,D3,,,,D8,A7,D7,,,,E1,C,E5,,,,6,,,,,,{12}1x/8x,1x/8x,1x/8x,2bx/7bx,,,
{8}2/6,3,5,4,7/3,6,4,5,{16}2/5,,3,3,5,,4,,{8}5/7,6,4/5,3,2-4-7[4:1],2,7-5-2[4:1],8,1,8,7-4[8:1],7,3-1[8:1],2,5s1[4:1],6,,,,,3/7,6,4,5,6/2,3,5,4,{16}7/4,,6,6,4,,5,,{8}2/4,3,4/5,6,7-1[8:1],7,2-5[8:1],3,8<5[8:1],7,{4}4pp4[4:1],4qq4[4:1],,5,2b/7b,
{8}3/8,3h[8:5]/8,,{16}E1,E2,E3,E4,E5,E6,E7,,,,{8}6/1,6h[8:5]/1,,{16}E1,E8,E7,E6,E5,E4,E3,,,,{4}2h[8:1]/8h[8:1],3h[8:1]/1h[8:1],4h[8:1]/2h[8:1],3h[8:1]/5h[8:1],{8}6,6h[8:3],4,2,8w4[8:1],,8b,,3h[8:1]/5,7,4h[8:1]/8,7,6h[8:1]/4,2,5h[8:1]/1,2,3h[8:1]/4,6,4h[8:1]/8,7,6h[8:1]/5,3,5/1,2/4,2h[4:1]/4h[8:1],,,
7/5,7h[4:1]/5h[8:1],,,5/6,7/8,1/2,3/4,5/6,3v4[8:1]/7v8[8:1],,3/7,,{4}1b-3v2-4-6[4:3]/5b,,6,7,8-6v7-5-3[4:3],,3,2,1>4-6-2[2:1],,7,8,{8}E1,E2/E8,E7/E3,E6/E4,E5,,2b/7b-4[8:1],,
{16}3>8[8:1]/7,,2,,3/5,,6,6,8-4[8:1],7,1,,2-5[8:1]/8,,,,2/6<1[8:1],,7,,4/6,,3,3,1-5[8:1],2,8,,1/6,,,,{8}4-8[8:1],3,2-6[8:1],1,8-4[8:1],7,6>7[4:1],5,4h[4:1],,{16},,3,4,2-5[8:1]/5-8[8:1],,,,2b/5b,,,,5/7,,4,,5/7,,8-5[8:1],,8-3[8:1],,8x,,8x,,4,4,2/4,,5,,4/2,,1>4[8:1],,1<6[8:1],,1x,,1x,,,,2,4,3,6,5,,7/8,,7,5,6,3,4-8[8:1],,3/5,,4>1[8:1]*<7[8:1],,,,4w8[8:1],,,,4,,,,2b-5[8:1]/6b,,,,2/6<1[8:1],,7,,4/6,,3,3,1-5[8:1],2,8,,7-4[8:1]/1,,,,3>8[8:1]/7,,2,,3/5,,6,6,8-4[8:1],7,1,,2/8,,,,{8}5-1[8:1],6,7-3[8:1],8,1-5[8:1],2,3<2[4:1],4,5h[4:1],,{16},,6,5,4v1[8:1]/7<6-4[8:1],,,,4b/7b,,,,1/4,,4,,3,,8/4,,8/4,,7,,5-8[8:1]/6-8[8:1],,4,,5b-3[8:1]/6b-3[8:1],,,,6b<5[4:1]/5bq6[4:1],,,,{32}5b/6b,E7,E8,E1,E2,E3,E4,E5,{4}E6,{24}5/7h[4:1],,,8,1,2,{8}3,5/7,{24}4/2h[4:1],,,1,8,7,{8}6,4/2,{32}4/6,,,,8,1/7,2/6,3/5,{16}4,,3,4,,7,5,8,8-4[8:1],,1/7,,
{2}3bh[2:1]/8b,4h[2:1],5h[2:1],6h[2:1],{12}3h[2:1],,,,E4,,4h[2:1],,,,E5,,5h[2:1],,,,E6,,6h[2:1],,,,C,,2h[2:1],,E6/B6,,E4/B3,,4h[2:1],,E6/B6,,E4/B3,,5h[12:10],,E6/B6,,E4/B3,,7h[12:4],,,,,,{8}4/8h[8:1],4,7/3h[8:1],7,2/6h[8:1],2,5/1h[8:1],5,{16}2,3,4,5,3,4,5,6,4,4,6,6,3,,2/7,,{24}1,8,1,8,1,8,1,8,1,8,1,8,1,8,1,8,1,8,1-5[8:1],8,1,8,1,8,{32}1b,B1,Cf,B5,,,,,{4},,,
{4}4/5h[1:1],,6,7,8>4[2:1],5,6,{8}7,8x,{4}8x/4hx[1:1],,1,2V86-4[2:1],,,3,3b/4b,2h[8:1]/4,3h[8:1]/5,4h[8:1]/6,5h[8:1]/7,6h[8:1]/8,7h[8:1]/1,8h[8:1]/2,1/2,{16}2>5[8:1],1,2,1,2,,,,7<4[8:1],8,7,8,7,,,,{4}2h[8:1]/4h[8:1],7h[8:1]/5h[8:1],{12}1/7,1/7,1/7,2b/6b,,,
{8}3-8[8:1]/4-7[8:1],2/5,A4/D4f/A3,,{16}1-5[8:1]/6,2/7,3/8,,1,,,,1/7v4[8:1],,6,,1/7,,3,3,5-1[8:1],4,6,,5/7,,,,{8}2/8-3[8:1],7,6-1[8:1]/8,5,4-7[8:1]/6,3,2>1[4:1]/4,1,2/8,,{32}2x,3x,4x,5x,6x,7x,8x,1x,{4}2xv5[8:1]/6-1[8:1],2b/6b,{8}8/4,5,6,3/7,3/7,,8-3[8:1],2/6,8b-5[8:1]/4b,6,8bpp4[4:1]*qq4[4:1]/4b,2,8b,,,,{16}3,3,4,4,5,5,6,6,7,7,8,,8/4,,3/7,,3h[8:1]/7h[8:1],,{32},2bx/6bx,1bx/5bx,8bx/4bx,{16}7bx/3bx,,1,4,3,8,5,6,1,8,4,5,{2}3b/6bh[2:1],5h[2:1],4h[2:1],3h[2:1],2h[2:1],1-5[65.5#1:1]b,1h[4:9],E
Re:MASTER
- MASTER譜面を追加しました。修正等ありましたらよろしくお願いします。 -- Sugar (2026-03-13 14:21:05)
- EXPERT譜面を追加しました。修正等ありましたらよろしくお願いします。 -- Sugar (2026-03-15 20:44:31)
最終更新:2026年03月15日 20:44