BASIC
(180)
{1},
{2}1,1,
{1}1,
{2}8,8,
{1}8,
{2}1,1,
{1}1,
{1}18,
{1}18,
{2}1,1,
{1}2,
{2}3,3,
{1}4,
{2}5,5,
{1}6,
{2}7,7,
{1}1bx/8bx,
{2}8,8,
{2}7,7,
{2}6,6,
{1}45,
{2}4,4,
{2}3,3,
{2}2,2,
{1}18,
{1}1-5[4:3],
{1},
{1}8-4[4:3],
{1},
{1}2-6[4:3],
{1},
{1}7-4[4:3],
{1},
{1}B4,
{1}B5,
{1}B3,
{1}B6,
{1}B2,
{1}B7,
{1}B1,
{1}Cf,
{4}1,1,{2}1,
{2}2,2,
{4}3,3,{2}3,
{1}4bx/5bx,
{4}5,5,{2}5,
{2}6,6,
{4}7,7,{2}7,
{1}18,
{4}8,8,{2}8,
{2}7,7,
{4}6,6,{2}6,
{1}4b/5b,
{4}4,4,{2}4,
{2}3,3,
{4}2,2,{2}2,
{1}18,
{2}1,1,
{1}2h[2:1],
{2}3,3,
{1}4h[2:1],
{2}5,5,
{1}6h[2:1],
{2}7,7,
{1}8-4[8:5],
E
ADVANCED
(180)
{1},
{4}5,5,{2}5,
{4}6,6,{2}6,
{4}7,7,{2}7,
{2}18,18,
{4}1,1,{2}1,
{4}2,2,{2}2,
{4}3,3,{2}3,
{2}45,45,
{4}4,4,{2}3,
{4}2,2,{2}1,
{4}8,8,{2}7,
{4}6,6,{2}45,
{4}5,5,{2}6,
{4}7,7,{2}8,
{4}1,1,{2}2,
{4}3,3,{2}45,
{2}6h[2:1],5h[2:1],
{2}4h[2:1],3,
{2}3h[2:1],4h[2:1],
{2}5h[2:1],6,
{2}7h[2:1],6h[2:1],
{2}5h[2:1],4,
{2}2h[2:1],3h[2:1],
{2}4h[2:1],5,
{4}3,3,{2}34,
{4}2,2,{2}12,
{4}8,8,{2}78,
{4}56,56,{2}56,
{4}6,6,{2}56,
{4}7,7,{2}78,
{4}1,1,{2}12,
{1}3bx/4bx,
{1}2-5[2:1],
{1}7-4[2:1],
{1}2q5[4:5],
{1},
{4}B7,B6,{2}B5,
{4}B2,B3,{2}B4,
{4}B7,B6,B5,B4,
{1}Cf,
{4}7bx,7x,8x,8x,
{4}1x,1x,{2}1x/2x,
{4}3,3,2,2,
{4}1,1,{2}78,
{4}7,7,6,6,
{4}5,5,{2}34,
{4}2,2,3,3,
{4}4,4,{2}5b/6b,
{4}6,6,78,78,
{4}1,1,{2}12,
{4}3,3,12,12,
{4}8,8,{2}78,
{4}7,7,56,56,
{4}4,4,{2}34,
{4}2,2,3,3,
{1}4xh[2:1]/5xh[2:1],
{4}4,3,2,1,
{4}8,7,{2}56,
{4}5,6,7,8,
{4}1,2,{2}34,
{4}4,3,2,1,
{4}8,7,6,5,
{4}4,3,2,1-4[4:3]/8-5[4:3],
{1},
E
EXPERT
(180)
{1},
{4}3,3,{2}3h[1:1],
{4}E2,E3,{2}E4,
{4}6,6,{2}6h[1:1],
{4}E8,E7,{2}E6,
{4}3,3,5,5,
{4}4,4,{2}6,
{4}E7,E6,E4,E3,
{1}Cf,
{4}2h[8:21]/8b,{8}1,1,,3,{4}3,
{4}4,{8}3,3,,1,{4}1,
{4}8,{8}1,1,,8,{4}8V25[2:1],
{2},{4},5x/6x,
{4}7h[8:21],{8}8,8,,6,{4}6,
{4}5,{8}6,6,,8,{4}8,
{4}1,{8}8,8,,1,{4}1,
{4}26,{8}37,3bx/7bx,{4},6,
{2}5/7-4[4:1],{4}3,3,
{2}2-6[4:1]/4,{4}7,7,
{4}57,6,45,3,
{2}2x/4x,{4},2,
{2}2v5[4:1],{4}6,6,
{2}5/7v4[4:1],{4}3,3,
{4}2h[4:1],4,6h[4:1],4,
{2}3b/7b,{4},2x/8x,
{4}2b/8b,{8}3,3,{4}1,28,
{4}17,{8}6,6,{4}8,17,
{4}2h[4:1],4h[4:1],5h[4:1],7h[4:1],
{4}5x,{8}46,46,,28,{4}28,
{4}12,{8}3,3,{4}1,28,
{4}17,{8}6,6,{4}8,15,
{2}2-6[4:1],8-4[4:1],
{4}3h[4:1],{8}5,5,,26,{4}26,
{4}7h[1:1],5,5,5,
{4}E7,E6,E5,E4,
{4}2h[1:1],4,4,4,
{4}E3,E4,E5,E6,
{4}1,1,28,28,
{4}3,3,24,24,
{4}5,6,7,8,
{2}1b/7b,{4}34,5xq2[4:1]/6x^1[4:1],
{2},{4}34,5xq2[4:1]/6x^1[4:1],
{2},{4}34,5xq2[4:1]/6x^1[4:1],
{2},{4}34,24,
{2}1b/5b,{4}46,46,
{4}7h[8:5],{8}5,5,,4,{4}4,
{4}2h[8:5]/5,{8}4,4,,5,{4}5,
{4}34,34,12,78,
{4}56,34,3b/4b,2x^7[4:1]/3xp6[4:1],
{2},{4}45,2x^7[4:1]/3xp6[4:1],
{2},{4}45,2x^7[4:1]/3xp6[4:1],
{2},{4}45,45,
{2}2b/7b,{4}18,18,
{4}3h[4:1],1h[4:1],8h[4:1],6,
{4}6h[4:1],8h[4:1],1h[4:1],3h[4:1],
{4}4,{8}24,24,,57,{4}57,
{1}B4/B8/Chf[8:7],
{2},{4},1x/8x,
{4}3h[4:1],4,12,78,
{4}6h[4:1],5,78,12,
{8}3,3,4,2h[8:7],{4},{8}1,1bh[8:3],
{2},{4}38,38,
{4}7h[4:1],5,28,34,
{4}2h[4:1],4,17,56,
{2}7w3[4:1],{4},{8}1x/5x,1x/5x,
E
MASTER
(180)
{1},
{4}3,3,34,35,
{4}6,6,56,46,
{4}2,2,24,35,
{4}7,7,57,46,
{4}3^8[4:1],5,5,5,
{4}6,6,17,17,
{4}8^5[4:1],3,2^5[4:1],6,
{8}7,7,5,6,3,3,{4}4,
{4}2b/8b-4[8:1],{8}3,2-5[8:1],,6,7,7,
{4}46,{8}2,24,,7,{4}57,
{4}1-5[8:1],{8}6,7-4[8:1],,3,{4}2h[4:1],
{8}1V35[4:1],1,{4},,{8}7x/8x,7x/8x,
{4}1-5[8:1],{8}6,7-4[8:1],,3,2,2,
{4}35,{8}7,57,,2,{4}24,
{4}8-4[8:1],{8}3,2-5[8:1],,6,{4}7h[4:1],
{8}8,8,,57,,4,5,3,
{4}3h[8:3],{8},4,{4}4,2-5[8:1]/6-3[8:1],
{4},{8},7,7,5,6,4,
{8}3,6,{4}7-5[8:1],1-3[8:1],8-4[8:1],
{2}1h[8:5],{8},4,3,6,
{4}7^4[4:1],{8},3,{4}3h[4:1],{8}4,4,
{4}2^5[4:1],{8},6,7,7,5,8,
{8}1,1,4,2,5,5,{4}4^1[4:1]*^7[4:1],
{2},{8},17,{4}17,
{4}2-6[8:1],{8}8,8h[4:1],,5,{4}5h[4:1],
{4}7-3[8:1],{8}1,1h[4:1],,4,{4}4h[4:1],
{4}2-5[8:1],7-3[8:1],1-5[8:1],8-4[8:1],
{4}3h[4:1],{8}5,5,,17,{4}17,
{4}6^1[8:1],{8}3,3h[4:1],,1,{4}1,
{4}28,3^6[4:1]/7^2[4:1],{2},
{4}8-4[8:1],4,3-8[8:1],5<4[8:5],
{2}1,{4},{8},57,
{8}5h[4:1]/7h[4:1],,,24,2h[4:1]/4h[4:1],,,5-8-4-1[8:5],
{1}5h[1:1],
{8}8x,,,17,1h[4:1]/7h[4:1],,,2-6-3-7[8:5],
{1}2h[1:1],
{8}8x,,,46,4h[4:1]/6h[4:1],,,2h[4:1],
{8},4,5,6,6h[4:1],,8,8h[4:1],
{8},1,1,3,{4}3h[4:1],5,
{2}2-7[8:1]/6-3[8:1],1bx/5bx,
{4}1-5[8:1]/2-5[8:1],1x/2x,{16}46,,,57,,,{8}78,
{4}7-4[8:1]/8-4[8:1],7x/8x,{16}35,,,24,,,{8}12,
{4}1-5[8:1]/2-5[8:1],1x/2x,{16}46,,,57,,,{8}7^4[4:1]/8p3[4:1],
{2}78,{8},2x/4x,1-5[8:1],1,
{8}8-4[8:1],8,2,2h[4:1],,1,1,38,
{8},7,7x,8x,8x,6x,6,5,
{8}7,2,2,4,{4}3>5[2:1],Cf,
{2},{4}1b/8b,24,
{4}1>5[4:1],5<1[4:1],1,5,
{8}28,28,{4}3-6[8:1]/7-2[8:1],,1x/5x,
{4}8<4[4:1],4>8[4:1],8,4,
{8}5w1[4:1],5,{4},,3b/7b,
{4}1-5[8:1]/2-5[8:1],1x/2x,{8}6,6,{4}5,
{4}7-4[8:1]/8-4[8:1],7x/8x,{8}3,3,{4}4,
{1}1s5[2:1],
{1}B4h[8:3]/B6h[8:3]/Chf[8:3],
{8}1x^4[8:1],,,8x^5[8:1],,,{4}1x-5[8:1],
{4}6,{8}47,47,,25,{4}25,
{4}1^4[8:1],{8}6,7h[4:1],,5,{4}5,
{8}E7,E8,E1,E2,{4},{8}35,35,
{8}2-6[8:1],,7,8-4[8:1],,4,{4}3,
{4}3,{8}24,24,,57,{4}57,
{4}8^5[8:1],{8}3,2h[4:1],,1,{4}1,
{8}2,4,5,7<3[4:1],{4},{8}1,1b,
E
Re:MASTER
(180)
{2},{4},{8},{16}5x,4x,
{4}3h[4:7],E7,E8,E1,
{4}E2,E3,E4,E5,
{4}6h[4:7],E3,E2,E1,
{4}E8,E7,E6,E5,
{4}3p6[2:1],6,5,4,
{4}4q1[2:1],2,3,4,
{4}5-1[4:1],8,7,26,
{4}7h[4:1],{8}5,2h[4:1],,4,{16}1,8,1,8,
{4}2b/7b,{8}38,3^6[8:1]/8,,1,{4}1,
{4}8h[4:1],{8}6,6-1[8:1],,7,{4}7,
{4}2h[4:1],{8}3,3-8[8:1],,1,{4}1,
{8}7x,8x,1x,2x^7[4:1],{4},{8}5b,5b,
{4}4x/6x,{8}28,2-6[8:1]/8,,1,{4}1h[2:1],
{4}7,{8}8,8^3[8:1],,7,{4}7,
{4}6^1[8:1],{8}3,3^6[8:1],,8,{4}8,
{8}5x-2[8:1],7x-4[8:1],5x,7x,{4},24,
{8}3h[4:1],,,2h[8:3]/4h[8:3],,,{4},
{4}2/4^6[8:3]b,{8}E3,,,E4,,6,
{8}6h[4:1],,,5h[8:3]/7h[8:3],,,{4},
{4}5/7qq7[8:5],{8}E5,,,E4,,2,
{8}2h[4:1],,,3h[8:3]/4h[8:3],,,{4},
{4}2V46[2:1]/5,{8}E6,,,E8,,7,
{4}7h[4:1],{8}5,5h[4:1],,4,4,2,
{2}1hx[4:1]/5hx[4:1],{8},8,{4}8-4[8:1],
{4}1b/8b,{8}25,6,78,1,{4}2/8V64[8:1],
{4}1b,{8}2,2,1,8,7,7,
{4}6/8z4[4:1],4>8[4:1],8<4[4:1],4z8[4:1],
{4}8,{8}7,7h[4:1],,5,{4}5-1[8:1],
{4}4b/5b,{8}28,7,{4}16,7/8qq1[16:5],
{4}1b,{8}2,2,4,3,6,5,
{4}4/7-3[8:1],{8}4,4-1[8:1],,5,{4}5<1[4:1],
{4}1bV37[4:1],{8}5,5,,48,{4}48,
{4}8x<1[2:3],E1,E2,E3,
{4}E4,E5,E6,E7,
{4}1x>8[2:3],E8,E7,E6,
{4}E5,E4,E3,E2,
{4}7h[4:3],E1,E7,E5,
{4}3h[4:3],E3,E1,E7,
{4}E5hf[2:3],E3,E7,E1,
{2}Ch[2:1],{4},18,
{8}2v5[8:1]/6-1[8:1],7,{4}2b/6b,{8}48,{16}2,1,,7,{8}8,
{4}1^4[8:1]/6^1[8:1],1b/6b,{8}3x/8x,{16}2,1,,6,{8}5,
{4}4^1[8:1]/7^4[8:1],4b/7b,{8}1x/5x,{16}2,4,,7,{8}5,
{8}48,2bpp4[8:1]/6bpp8[8:1],{4},{8},3x/7x,2,1,
{8}78,6,35,2V46[4:1],,6,8,1V75[4:1],
{8},5x,3x,1xV35[4:1],,4,6,8,
{8}1-6[8:1],1,5-2[8:1],5,7-4[8:1],7,8,8b,
{16}1,5,2,6,3,7,4,8,{2}1bhx[16:3]/5bhx[16:3],
{8}3^8[8:1]/7^4[8:1],48,{4}3b/7b,{8}15,{16}7,8,,2,{8}1,
{4}4-1[8:1]/8-5[8:1],4b/8b,{8}26,{16}7,8,,3,{8}4,
{4}2^3-5[8:1]/6^7-1[8:1],2b/6b,{8}48,{16}7,5,,2,{8}4w8[8:1],
{8}35,B4f,,26,,{16}7,8,6,1,5,2,
{4}4-1[8:1],2qq7[8:3]/4,{8}8,6,4,4h[8:3],
{4},{8}8,1,25,6,{4}4p8[4:1]/7,
{4}8>5[8:3],{8}5,5V31-7[8:3],,8,{4}8,
{2}B4hf[4:3]/E4h[4:3]/E5h[4:3],{4},{8}8,2b/6b,
{2},{8},78,{4}78,
{4}56,{8}78,1/6V82[16:3],,3,{4}3h[4:1],
{4}1h[4:1],{8}8,8^3[8:1],,7,{4}7,
{8}4x,2x,8x,6x<3[4:1],{4},{8}5b,5b,
{4}4x/6x,{8}12,3/8V63[16:3],,1,{4}1-5[8:1],
{4}1/8h[4:1],{8}6,6h[4:1],,4,{4}4h[4:1],
{4}2-6[8:1],{8}4,4v1[8:1],,8,{4}2h[4:1],
{8}8,3-6[8:1]b/7-2[8:1]b,26,3bxV16[4:1]/7bV52[4:1],
E
最終更新:2026年07月01日 20:25