アットウィキロゴ

無敵的ハピネス!(SOS団5人Ver.)

アーティスト 涼宮ハルヒ(CV.平野綾),長門有希(CV.茅原実里),朝比奈みくる(CV.後藤邑子)、キョン(CV.杉田智和)、古泉一樹(CV.小野大輔)

BPM BASIC ADVANCED EXPERT MASTER Re:MASTER
185 3 7 10 13 -

EXPERT MASTER Re:MASTER
譜面制作者 せめんともり きょむりん -

BASIC


ADVANCED


EXPERT


MASTER

(185)

{1},{16}E2,B2,B3,E4,E8,B7,B6,E6,A2,E3,E4,A4,A7,E7,E6,A5,E1,E2,E3,E4,E5,E6,E7,E8,A1,A2,A3,A4,A5,A6,A7,A8,{4}A1/Cf,,,{8},2,,3,4/6,4b/6b,,8,8,1h[4:1]/7h[4:1],,,{4}2-4[8:1]/6-8[8:1],2/6,8>4[4:1],4<8[4:1],8,4,2/6,3/7,4-2[8:1]/6-8[8:1],4/6,2x/8x,{8}1-5[8:1],7-3[8:1],1b,7b,1b,,2b/4b,,

{48}3,4x,,,,,{8},,{48}6,5x,,,,,{8},,,{48}7,8x,,,,,{8},,,{4}1/7,{4}1/8,2-5[8:1],2h[8:1],8-4[8:1],8h[8:1],1-5[8:1],1h[8:1],7-4[8:1],7h[8:1],{8},
{48}3,4x,,,,,{8},,4/5,,{16}6,5,6,5,{4}6bx,5b/7b,5b/8bh[4:1],{8}4,3,2h[4:1],,4,5,6h[4:1],,3,2,1h[4:1],,2,{4}2,
7/8,5/6,

{4}3/4-7[8:1],4,3/4-8[8:1],4,3x/8x,4-1-4[4:1]/8-5-8[4:1],,,3^8[8:1]/4,3,6^1[8:1]/5,6,5/6-1[8:1],5-2[8:1]/6,5/6,3x/6x,
{8}7,7,5,6h[2:1],,1,1,8h[2:1],,4,4,3h[4:1],,8,1,2,3,4,5,4/6,4/6,,1/7,1/7,,2/6,3bh[4:1]/7bh[4:1],,,

{4}2/6,2-8[8:1]/6,2/5-8[8:1],1/5,{8}8x,7,{4}1/6-4[8:1],1-3[8:1]/6,1/5,{8}5/6,{4}5v3[4:1]/6V82[4:1],,,{8}2/4,2<5[4:1]/4h[2:1],,2,,,,3/7,3/7,2-5[8:1],1,2,,7-3[8:1],8,7,,2V46[4:1],,6>2[4:1],,2V86[4:1],,8h[4:1],,,5,5,,4,3,2h[4:1],,1,8,{4}3^8[8:1]/7^4[4:1],3/7,8x-3[8:1]/4x-7[8:1],4/8,

{4}3x/7x-1[8:1],4-1[8:1]/7,4/8,{8}1x,2,{4}3-5[8:1]/8,3/8-6[8:1],4/8,{8}4,3,2/4,,1/8,1/8,,5/7,{4}5/7pp4[2:1],E4f,,{8}3V17[4:1],,6,5,4V68[4:1],,1,2,3V17[4:1],,6,5,4V68[4:1],,1,2,3,,3/8,3/8,,{4}1/2-5[8:1],1-5[8:1]/2,1/8-4[8:1],8,3,{8}3,2,{16}1b/2b,,,7b/8b,,,{8}5b/6b,{1}5bx<2V85[1:1]/6bx>1V36[1:1],,

{4}6h[4:7],B5/A5,,E5/D5,,B5/A5,,E5/D5,2h[4:7],A8/B8,,D8/E8,,A8/B8,,D8/E8,{8}A5,A6,A7,A8/B8,,A4,A3,A2,A1/B1,,{1}E6h[4:3]/B5h[4:3]/B4h[4:3]/E4h[4:3]/A5h[4:3]/E5h[4:3]/A4h[4:3],,

{4}5/6,5/6,{8}4,4,3h[8:5]/5,,2-5[8:1],2,,,,5/6,
{8},4/7-3[8:1],4/7,,,,
{8}3,3,2h[4:1]/4,,,1h[4:1]/3,,,2,2,8,8,1,,1bxh[4:1]/2bxh[4:1],,,6bxh[4:1]/7bxh[4:1],,,3bxh[4:1]/5bxh[4:1],,,,1b/7b,,2bx,4,3,7,5,6h[4:1],,1bx,4,3,8,5,6-4[8:1],,6bx,3-7[8:1],,3bx,8>5[4:1],,8bx,,,,,{16}6,5,6,5,6,5,6,5,6,5,

{4}4/7-4[8:1],,3p6[4:1]/5h[4:1],,,4/6,6h[4:1]/7q4[4:1],,,3/4,1h[4:1]/2q7[4:1],,,7/8,5h[4:1]/6V82[4:1],,,{8}3,3,4,2h[2:1],,8,8,1h[8:9],,4,4,5,6-3[8:1],,6,,2,2,4,4h[8:7],,8,8,7h[4:1],,,7>4[4:1],,7,,6,,

{4}7V13[4:1],A6,A5,A4,3>7[4:1],A4,A5,A6,{8}5,6,7,4,3,,1/6,1/6,,3/8,3bh[8:3]/8bh[8:3],,,,1/2,{4}B8/B1/B2/B4/B5/B6/B7/Cf/B3/D7/E7/E6/D6/E5/D5/A5/A6,,,{8},8/7,{4}B1/B8/B7/B5/B4/B3/B2/Cf/B6/D3/E3/E4/D4/E5/D5/A4/A3,,{8},2/6,3/7,4/8,4bh[4:1]/8bh[4:1],,,6,6,5,{4}4>8[4:1]/7h[4:1],4,,{8}2/6,2/6,7-4[8:1],8,7,,2-6[8:1],1,{4}2,7V53[4:1],3<7[4:1],7V13[4:1],1h[8:3],{8},
{8}4,4,,5,6,7h[4:1],,8,1,{4}2>5[8:1]/6<1[8:1],2/6,1x-6[8:1]/5x-2[8:1],

{4}1/5,3/7-1[8:1],4-1[8:1]/7,4/8,{8}1x,2,{4}3-5[8:1]/8,3/8-6[8:1],4/8,{8}4,3,2/4,,1/8,1/8,,5/7,{4}5/7pp4[2:1],E4f,,3V17[4:1],{8}6,5,4V68[4:1],,1,2,3V17[4:1],,6,5,4V68[4:1],,1,2,3,,3/8,3/8,,2-5[8:1],2,1-5[8:1],1,8-4[8:1],1,{4}7<3[4:1],3>7[4:1],7,{16}3b,,,2b/6b,,,1b/7b,,2h[8:1],,4,3,7h[8:1],,5,6,2h[8:1],,4,3,7h[8:1],,5,6,1h[8:1],,4,3,8h[8:1],,5,6,{8}4,3/7pp3[2:1],2,{2}1h[2:1],{8},,,2/4,2/4,3,5,4,6,{16}5b/7b,,,1b/8b,,,{8}2b/4b,

{4}5<1[8:1],3h[4:1]/5,,4,3/4>8[8:1],4/6h[4:1],,6/7,{4}B8/B1/B2/B3/B4/B5/B6/B7/Cf,,,{8},2h[4:1]/5h[4:1],,,3/6,3b/6b,4qq2[4:1]/5<1[4:1],4x/5x,,,{4},2-4[8:1]/6-8[8:1],2/6,8>4[4:1],4<8[4:1],8,4,1/6,2/4,4-2[8:1]/6-8[8:1],4/6,2x/8x,{8}1-5[8:1],7-3[8:1],1b,7b,1b,,4,1/3,,{16}2,1,2,1,2bx,,,,7,8,7,8,{8}7bx,,6-3[8:1]/7-2[8:1],6/7,,E

  • 追加しました。シアミラ(2026/05/25 00:53:53)

Re:MASTER


名前:
コメント:

タグ:

+ タグ編集
  • タグ:
最終更新:2026年05月25日 00:53