アットウィキロゴ

Chasing destiny

アーティスト 涼宮ハルヒ(CV.平野綾)

BPM BASIC ADVANCED EXPERT MASTER Re:MASTER
186 4 7+ 10+ 13+ -

EXPERT MASTER Re:MASTER
譜面制作者 はっぴー サファ太 -

BASIC


ADVANCED


EXPERT


MASTER

(186)
{16}3x,5,3,5,4x,6,4,6,3x,6,3,6,{32}4xh,5xh,{16},{8},

{16}A1,A2,A3,A4,A8,A7,A6,A5,A2,A3,A4,A5,D8,D7,D6,D5,
{16}1,2x,3x,4x,8,7x,6x,5x,2,3x,4x,5x,7,6x,5x,4x,
{16}A2,E3,E4,A4,A8,E8,E7,A6,A1,B1,C,B5,{4}7x<2q8[4:3]b,
{8}8b,,,Cf,{2},
{4}2-5[8:1]/8,1-6[8:1],{8}4,3,5,6^3[8:1],
{8},2^7[8:1],,5,,6,{4}6h[4:1],
{16}4,3x,2x,1x,7,6x,5x,4x,2,3x,4x,5x,8,7x,6x,5x,
{4}3-8[8:1],{8}6,6-1[8:1],,2,{4}2,
{8}A3,A4,A5,A6h[4:1],{4},{8}3,4,
{8}5,6h[4:1],,3,{32}4xh,5xh,{16},{8}3bx,{4},

{4}2h[4:1]/6,6,16,16,
{4}6/8h[4:1],6,68,6/8q5[2:1],
{4}6,6,6,5p8[2:1]/6,
{4}6,6,6,57,
{4}6^4[4:1],4,3,24,
{4}3^5[4:1],5,6,5/7-1v3[2:1],
{4}4,3,2,1h[2:1]/4,
{16}E5,E6,E7,E8,{4}E1,{8}36,36,,2,

{4}2^7[8:1],4,{8}6,6,5,7h[4:1],
{8},8,{4}8,{8}6,5,4,5,
{4}6V82[4:1],{8}4,4,,3h[4:1],,2<4[8:5],
{4},3,3,2-8[8:1],
{8}5,5h[4:1],,8v5[8:1],,6,7,8^5[8:1],
{8},5-1[8:1],,4,,2h[4:1],,C,
{8},1,2,8,47,5-8[8:1]/6h[4:1],,5,
{4},78,56,34,

{4}3h[4:3]/4,{8},2,{2}2h[4:1],
{8}14,14,,58,{4}58,67,
{4}5h[8:3]/6,{8},4,{2}4>8[8:3]*q8[8:3],
{4},{8},17,{4}17,6,
{4}5/6h[4:3],{8},7,{2}7h[4:1],
{8}58,58,,14,{4}14,23,
{4}3/4h[8:3],{8},5,{2}5pp6[2:1]*qq4[2:1],
{2},{4}46,4/6-1[8:1],

{4}5b,5/6-1[8:1],4,3-8[8:1]/4,
{4}4,3-8[8:1]/4,5,16,
{4}1/7-4[8:1],8,1/2^5[8:1],8,
{4}7^4[8:1]/8,1,B1/B2/B8/E2,B5/B6/E6,
{4}34,34,78,12,
{4}56,56,12,78,
{4}4h[8:1]/7h[8:1],4h[8:1]/7h[8:1],2h[8:1]/5h[8:1],2h[8:1]/5h[8:1],
{8}3b/6b,4b/7b,{4}5b/8b,{16}7,4,5,2,{4}8^3[8:1]*^5[8:1],

{4}8b,26,{8}18,1-3[8:1]/8-3[8:1],,1-6[8:1]/8-6[8:1],
{8},1b/8b,{4},{8}78,16,25,3-8[8:1],
{8},4-7[8:1],,1-6[8:1],,8-3[8:1],,5>8[8:3],
{8},B5/B6/E6,{4},7x,7^4[8:1],
{4}8bv3[8:1],7^4[8:1],8v3[8:1],7^4[8:1],
{4}8v3[8:1],7^4[8:1],1,1-6[8:1]/2-5[8:1],
{4}1b/2b,47,{8}26,2pp5[8:3]/6pp1[8:3],,2b/6b,
{2},{8}7^5[8:1],5-1[8:1],7,2^4[8:1]*-6[8:1],

{8},2,,8,17,2-4[8:1]/6-4[8:1],,2-8[8:1]/6-8[8:1],
{8},26,,1x/7x,26,3,4,3/5<1[4:1],
{8},1>5[4:1],,5V71[4:1],,1V35[4:1],,5<4[8:3],
{8},Cf,{4},,{8}28,37,
{4}4/6-1[8:1],5^2[8:1],{8}8,7,{4}1x-5[8:1]/6,
{4}1,1-4[8:1]*-6[8:1],1,1w5[8:1],
{4}1b,{8}37,37,,24,{4}2h[4:1]/4-1[8:1],
{4}4bx,3-8[8:1]/8^5[8:1],38,1/5x,

{2}2h[2:1]/4h[2:1],{8},2^8-5[8:15],3,4h[8:9],
{1},
{1},
{2}E3h[2:1]/E5h[2:1],E4,
{8}3,4,5,6,7,6,5,4,
{8}3,2,1,8h[4:1],,6h[4:1],,4,
{8}5,6,7,8h[4:1],,6,5,4,
{8}3,5,{4}46,{32}6xh,5xh,{16},{8}7bx,{4},

{4}4/6h[2:1],4,4,3/5s1[4:3],
{4}2x,2x,2x,2,
{4}1h[4:1]/2,2,12,1p8[4:3]/2,
{4}3x,3x,3x,3,
{4}3/8h[4:1],3,13,1s5[4:3]/3,
{4}2x,2x,3x,3,
{4}4h[4:1]/5,3h[4:1],2h[4:1],1h[4:1],
{4}8h[4:1],7h[4:1],6h[4:1],5,
{4}4/5^8[4:1],8^3[4:1],3^6[4:1],6^1[4:1],
{4}1-5[4:1],5,3,1>5[4:3]*<5[4:3],
{1},
{16}4,6,4,6,5,6,2,4,3,4,3,4,{4}2b,

{8}6bx/8bx,6bxh[8:3]/8bxh[8:3],{4},{2},
{8}1bx/3bx,1bxh[8:3]/3bxh[8:3],{4},,8x,
{8}17,1h[8:1]/7h[8:1],,2h[8:1]/6h[8:1],,3-8[8:1]/7-3[8:1],,3b/7b,
{8},2x/6x,{16}3,5,3,5,4,6,4,6,5-1[8:1],7,5,7,
{4}5b,2-4[8:1]/8-4[8:1],28,1/7V13[4:1],
{4}3p6[4:1],6,5,4>6[8:3],
{2}Cf,{8}8,7,16,2V48[4:1]/5,
{8},5,{4}7,{8}7-4[8:1],8^3[8:1],7,8^5[8:1]b,

{8},4x/8,,3,2-5[8:1],1^6[8:1],2,1^4[8:1]b,
{8},1/5x,,7,7,8-4[8:1],1,2-7[8:1]/8,
{8},2/5-1[8:1],,4-8[8:1]/5,,4/7^1[8:1],,3V51[4:1]/7,
{8},8,{4}6b/Cf,{8}28,28,{4}3^8[8:1]/7,
{4}5b,3^8[8:1]/4,{8}4,5,{4}6^1[8:1],
{4}4,4/6^1[8:1],{8}5,4,{4}3h[4:1],
{8}1-5[8:1],2,1,3-8[8:1],,5,{4}7h[4:1],
{8}8,1,26,5,{16}3,4,3,4,{4}1b-6[8:1],

{4}1/7-4[8:1],3-8[8:1]/7,{8}3,5,1-6[8:1],7,
{4}1^4[8:1],1/8^5[8:1],8-3[8:1]*-4[8:1],8,
{4}2b-6[8:1]/5b,6-2[8:1],{8}8,8,7,7,
{4}17,{8}38,{16}2,2,{8}1,38,27,16,
{4}5<3[4:1],3,4-8[8:1],5,
{4}6<4[4:1],4,5-1[8:1],6,
{4}2b/8b,{8}12,12,18,18,78,78,
{8}16,38,25,47,3b/6b,{16}4,5,3,6,2,7,
{1}1bh[1:1],
{16}7,6,5,4,1,2,3,4,{32}8,7,6,5,4,3,2,1,{4}8w4[8:1],

{64}8b>7[8:11]b*<1[8:11]b,Cf,{32},{16},{8},{4},{2},
{1},
{16}2x/6x,3,4,5,6,7,8,1,2x/6x,5,4,3,2-6[8:1],1,8,7,
{4}2bx/6x,{8}78,16,,12,{4}3/8^3[8:1],
{4}4-8[8:1]/8b,5,{8}7,6h[8:1],1,2h[8:1],
{8}4,5h[8:1],3,4h[8:1],6,7h[8:1],{4}5x,
{16}4,3,2,1,7,6,5,4,8,1,2,3,5,6,7,8,
{4}1-5^8[4:1]/2,{8}3,3,,{16}2,1,2,1,2,1,

{16}2b,3x,4x,5x,1,2x,3x,4x,8-4[8:1],1x,2x,3x,{4}4x/8bx,
{16}3,5,3,5,4>6[4:1],6,4,6,{2}4b,
{16}7,8,7,8,6,1,6,1,5,2,5,2,4,3,4,3,
{8}B5/E5f,B2/E3f,B8/E1f,B6h[8:3]/E7fh[8:3],,{32}B1,B2,B3,B4,{4}E5,
{8}7-3[8:1],7,8-4[8:1],8,1-5[8:1],1,2-6[8:1],2,
{4}8b,{16}7,4,6,5,8-4[8:1],3,1,2,{4}8b,
{1}3bxqq8<8[4:13]/5bxpp8>8[4:13],
{1},
{1},
{2},{4},8q4[8:1],
{1},
E

Re:MASTER


名前:
コメント:

タグ:

+ タグ編集
  • タグ:
最終更新:2026年06月17日 22:31