アットウィキロゴ

Colorful Starting Line

アーティスト 涼宮ハルヒ(CV.平野綾)

BPM BASIC ADVANCED EXPERT MASTER Re:MASTER
162 3 7 10 13 -

EXPERT MASTER Re:MASTER
譜面制作者 サファ太 せめんともり & カマボコ君 -

BASIC


ADVANCED


EXPERT


MASTER

(162)
{2},{8},{16}E6,E5,{4}E4,

{4}35,35,{8}35,4,35,6,
{4}35,35,{8}35,4,35,6,
{4}35,35,{8}35,4,35,6,
{4}3h[4:1]/5,{8}4,2,1,1,{4}2/8,
{4}1b,46,{8}46,5,46,3,
{4}46,46,{8}4^2[8:1]/6,5,{4}6-4[8:1],
{4}1h[4:1],{8}3,3,,24,,57,
{8},18,18,27,,3>6[2:1]/6,,Cf,

{2},{4},{8}3,3v6[4:1],
{8},5,,4,,3>6[2:1],,6,
{8},5,{4}5,4,{8}3,3-1[8:1],
{8},6-4[8:1],,1-7[8:1],,5-8[8:1],,1bh[8:5],
{8},7,6,5,{4}4h[4:3],{8}8,7,
{8}6,5,{4}3h[4:1],{8}4,25,,46,
{4}4/6-8[8:1],5,4/6^8[8:1],5,
{4}4/6-1[8:1],5,46,3-1[8:1]/5,
{4}4,3^1[8:1]/5,4,3-8[8:1]/5,
{4}4,5-8[8:1],4-1[8:1],5x,
{8}7,7,6h[16:3]/8,{16},5,{8}6,6,{4}57,
{8}3,3,2h[16:3]/4,{16},1,{8}2,2,{4}38,

{4}6h[4:1],B5/E5,{8}2,2h[4:3],,E1,
{8},E3,,E5,,34,{4}34,
{4}57,{8}8,8h[2:1],,B5/E5,,6,
{4}6qq5[2:1],{8}7,7bh[8:3],{2},
{8}48,4/8^5[4:1],,5-1[4:1],,1^4[4:1],,4-8[4:1],
{8},1,2,3,,38,27,16,
{4}1/6h[4:1],{8}8,8h[4:1],,1,,B4/B5/Cf/E4/E5/E6,
{1},

{2}3^6V48[4:5],{4}B6/E7,{8},7,
{8},6,{4}6,7,8,
{2}7/8pp3[4:5],{4}B4/E5,{8},5,
{8},6,,7,,8,8,1b/7b,
{8},68,,13,,4qq5[2:1]/6pp5[2:1],{4},
{2},{8},46,{4}46,
{4}5>8[2:1]/7,7,7,7,
{4}6/8>5[2:1],6,6,6-8[8:1],
{4}4-2[8:1],5-1[8:1],2xh[4:1],{8}8,8^5[4:1],
{8},1,2,3^6[4:1],,2,1,8,
{8},57,57,{16}6,5,{8}7,{16}3,4,{8}2,1b/5b,
{8},34,45,56,{16}4,5,3,4,{4}1b,

{4}3-1[8:1]b/4-8[8:1]b,3b/4b,3^1[8:1]/4q8[8:1],34,
{4}5-1[8:1]/6-8[8:1],56,5p1[8:1]/6^8[8:1],56,
{4}7-2[8:1],3-6[8:1]/7,1^6[8:1]/3,1/5^2[8:1],
{4}5/7-3[8:1],1-4[8:1]*-6[8:1]/7,1,3qq6[2:1],
{4}5,6-1[8:1],7,8qq3[2:1],
{4}2,3-8[8:1],4,57,
{16}7h[16:3],,,5h[16:3],,,{8}4,{4}3-8[8:1]/4,3/5<3[4:1],
{2}1bx,{8}5x,46,{4}46,

{4}3-1[8:1]/7-4[8:1],37,2-5[8:1]/6-8[8:1],26,
{4}3-6[8:1],3/7-2[8:1],5^2[8:1]/7,1^6[8:1]/5,
{4}1/3-7[8:1],3/5-2[8:1]*-8[8:1],5,{8}37,3b/7b,
{8},28,{4}2/8-4[8:1],1V35[8:1]/8,{8}6,8V64[8:1],
{8},4,3,2-4[8:1]*-6[8:1],,2^7[8:1],,2b/5b,
{8},68,{4}68,{2}5p1[8:1]/7^5[8:1],
{4}2b/4b,{8}56,47,,34,{4}2V83-7[2:1]/5,
{4},7b,5,6,

{2}B4/B5/B7/B8/Cf,{8}12,12,8,7,
{4}16,38,{16}6,5,6,5,{4}6<2[4:1],
{4}4,3V17[4:1]b,{8}5,5,{4}6h[4:1],
{4}5h[4:1],{8}4,{16},3,{8}4,4,{4}2/4<8[4:1],
{4}3,5>1[4:1],{8}7,6,{4}4<8[4:1],
{4}2,{8}5h[16:3],{16},7,{8}5,5,{4}46,
{4}35,{8}2h[8:1],3,4h[8:1],3,2h[8:1],3q8[4:1],
{8},1,2,3,,14,{4}14,

{4}1b/8b,{8}7,7,8,6,1,5^8[4:1],
{8},8^3[4:1],,3^6[4:1],,6^1[4:1],,2,
{4}2,{8}34,34,,6,5,47,
{8},16,,16,{16}7,8,{8}7,{4}16,
{2}1/6<3[4:1],4V28-6[4:1],
{4}5h[4:1],7,{16}68,,,18,,,{8}13,
{2}1<3<1[4:5]/3,{4}2,2,
{4}2,2,2,{8}38,38,

{8},{16}6,5,{8}6,{16}4,5,{8}4,{16}6,5,{8}6,{16}3,4,
{8}3,{16}5,4,{8}5,{16}3,4,{8}3,{16}6,5,{8}6,{16}3,4,
{8}2,{16}6,5,{8}7,{16}3,4,{8}2,{16}6,5,{8}7,{16}2,1,
{8}3,{16}7,8,{8}6,{16}2,1,{8}3,{16}7,8,{8}6,{16}3,5,
{8}1,{16}6,4,{8}8,{16}3,5,{8}1,1,78,16,
{8},12,38,47,,78,16,2V48[4:1]/5,
{2},{16}7,1,7,1,{4}8b,

{4}2xv5[8:1]b/6x-1[8:1]b,2b/6b,3-8[8:1]/7-4[8:1],37,
{4}2/6^1[8:1],3^6[8:1]/6,3/8^3[8:1],5^8[8:1]/8,
{4}2^5[8:1]/5,2/6-1[8:1],4-8[8:1]/6,4,
{2}1>5[4:1]/7q6[4:1],{4},2pp6[2:1],
{4}5,6-1[8:1],7,8q2[4:1],
{4}2>8[4:1],1,1,28,
{16}7h[16:3],,,5h[16:3],,,{8}4,{4}4-8[8:1],2w6[8:1],
{2}2b,{8}47,47,{4}56,

{4}3-1[8:1]/4-7[8:1],34,3-8[8:1]/4-6[8:1],34,
{4}5-3[8:1]/6-1[8:1],56,5-2[8:1]/6-8[8:1],56,
{4}3>7[4:1],7<3[4:1],3,{8}7,A1/A5/B1/B5/Cf,
{8},28,{4}28,1V75[8:1]/2,{8}2,1V35[8:1],
{8},6,7,8-2[8:1]*-3[8:1],,8<3[4:1],,18,
{8},8,{4}8,{2}1-4[8:1]/5-8[8:1],

{4}37,{8}12,3b/7b,,56,3b/7b,,
{8}18,2b/6b,,45,2b/6b,,12,4b/8b,
{8},78,{4}1b/5b-8[4:3],{8}3,2,2,2,2,2,
{2}2,B3/B4/B5/B6/E4/E5f/E6,

{4}7-4[8:1]/8-3[8:1],78,{8}2,2,4,3,
{4}5-2[8:1]/6-1[8:1],56,{8}3,3,1,2,
{4}7-3[8:1],8-4[8:1],1-5[8:1],2-6[8:1],
{4}3-7[8:1],4b-8[8:1],,26,
{4}1^4[8:1]/7^4[8:1],17,{8}6,6,4,5,
{4}3-8[8:1]/4-8[8:1],34,{8}7,7,{4}1^4[8:1],
{4}1^6[8:1],1-5[8:1],1,{8}46,37,
{8},2-6[8:1],1,2,,7pp2[1:2]*qq4[1:2],8,7,
{1},
{1},
E

Re:MASTER


名前:
コメント:

タグ:

+ タグ編集
  • タグ:
最終更新:2026年06月20日 12:20