| アーティスト |
ARM+夕野ヨシミ(IOSYS)feat. 藤咲かりん |
BASIC
ADVANCED
EXPERT
MASTER
(170){1},
{16}4,,,4,,,4,,4,,,,4,,,,
{16}4,,,4,,,4,,4,,5,,3,,,,
{16}5,,,5,,,5,,5,,,,5,,,,
{16}5,,,5,,,5,,3bxh[8:1]/5bxh[4:1],,,,,,,,
{2}4x-8[8:1],2v3[8:1]/6v5[8:1],
{2}4-8[8:1],2v3[8:1]/6v5[8:1],
{8}4-8[8:1],,,,1/7,1/7,2h[1:1]/6,,
{4}E7f,C1f,E3f,8b,
{4}7xh[8:1]/5x-3[8:1],7h[8:1],7h[8:1]/5>3[8:1],7h[8:1],
{8}7h[8:1]/5-3[8:1],,7h[8:1],,8/5-3[8:1],8,8b,,
{4}8xh[8:1]/6x-3[8:1],8h[8:1],8h[8:1]/6>3[8:1],8h[8:1],
{8}8h[8:1]/6-3[8:1],,8h[8:1],,7/6-2[8:1],7,7b,,
{4}8xh[8:1]/5x-2[8:1],8h[8:1],8h[8:1]/6-3[8:1],8h[8:1],
{8}8h[8:1]/7p3[8:1],,8h[8:1],,1/7<3[8:1],1,1b,,
{16}1-5[8:1]/2-5[8:1],,,,1/2,,,,6,,6,,8,7,8,,
{8}1/6,2,3/8,7,1bh[1:0]/6,1bh[1:0],1bh[1:0],1bh[1:0],
{8}1h[8:1],2h[8:1],3h[8:1],1h[8:1],2h[8:1],3h[8:1],1h[8:1],2h[8:1],
{8}3h[8:1],1h[8:1],2h[8:1],3h[8:1],1,1,2b,,
{8}7h[8:1],6h[8:1],5h[8:1],7h[8:1],6h[8:1],5h[8:1],7h[8:1],6h[8:1],
{8}5h[8:1],7h[8:1],6h[8:1],5h[8:1],7,7,6b,,
{8}2h[8:1],3h[8:1],4h[8:1],1h[8:1],2h[8:1],3h[8:1],7h[8:1],6h[8:1],
{8}5h[8:1],8h[8:1],7h[8:1],6h[8:1],1,1,2/8,,
{16}1,1,1,1,1,1,1,1,1,1,1,1,1,1,1,1,
{16}1,1,1,1,1,1,1,1,1x,2x,3x,4x,1x,2x,3x,4x,
{1}E1f/5,
{1},
{16}A6,A5,A4,A3,,,,,A6,A5,A4,A3,,,,,
{16}B6,B5,B4,B3,,,,,B6,B5,B4,B3,,,,,
{16}A6,E6,B5,B4,E4,A3,,,A6,E6,B5,B4,E4,A3,,,
{16}E8,E7,E6,E5,E4,E3,E2,,E8,E7,E6,E5,E4,E3,E2,,
{16}A8,E8,B7,B6,A4,E4,B3,B2,A7,E8,B8,B1,A3,E4,B4,B5,
{8}A6h[4:1]/D6h[4:1]/D7h[4:1],,,A3h[4:1]/D3h[4:1]/D4h[4:1],,,1b/8b,,
{8}7<4[8:1],7,8v3[8:1],8,7<4[8:1],7,8v3[8:1],8,
{8}7<4[8:1],7,8v3[8:1],8,7<4[8:1],7,8v3[8:1],8,
{8}7<4[8:1],7,8v3[8:1],8,7<4[8:1],7,8v3[8:1],8,
{8}7<4[8:1],7,8,8,1b/5b,,,,
{8}2>5[8:1],2,1v6[8:1],1,2>5[8:1],2,1v6[8:1],1,
{8}2>5[8:1],2,1v6[8:1],1,2>5[8:1],2,1v6[8:1],1,
{8}2>5[8:1],2,1v6[8:1],1,2>5[8:1],2,1v6[8:1],1,
{8}2>5[8:1],2,1,1,4b/8b,,,,
{16}6,6,5,,6,6,5,,6,6,7,,6,6,7,,
{16}6,6,8,,6,6,1,,6,6,2,,3/5,,,,
{16}3,3,4,,3,3,4,,3,3,2,,3,3,2,,
{16}3,3,1,,3,3,8,,3,3,7,,4/6,,,,
{8}6,6h[8:1],5,5h[8:1],4,4h[8:1],3,3h[8:1],
{8}7,7h[8:1],8,8h[8:1],1,1h[8:1],2,2h[8:1],
{16}4,3,,6,5,6,,4,5,4,,6,5,,4/7,,
{32}4/7,,,,3,,,,2/6,,,,7,,,,3/8,7,6,5,4,3,2,1,8-3[8:1],,,,,,,,
{4}4b-1[8:1]/8b-5[8:1],4/8<2[4:1],4b,8-3[8:1],
{4}4b-1[8:1]/8b-5[8:1],4/8<2[4:1],4b,8,
{8}1b/7b-3[8:1],,7/1>4[8:1],,1/5,6-2[8:1],,6/1>4[8:1],
{8},1/8,7-3[8:1]*-4[8:1],,7,,2/5,,
{4}6/1>5[4:1],5<1[4:1],1>5[4:1],5V31b[4:1],
{4}1<5[4:1],5>1[4:1],1,5,
{8}1/6h[4:1],,8,8h[4:1],,1,1,,
{16}2/4,,,,3/4,,,,2,4,,4,1-6[8:1]*-7[8:1],,,,
{4}1bx-3[8:1]*-4[8:1],1<3[4:1],4bx,1-6[8:1]*-7[8:1],
{4}1bx-3[8:1]*-4[8:1],1<3[4:1],4bx,1,
{8}8w4b[8:1],,8b,,2b/8b,1bw5b[8:1],,1b,
{16},,1,,1h[4:1],,,,8h[16:3],,,7h[16:3],,,6x-2[8:3],,
{8},,,8x-4[4:1],,,2x>5[4:1],,
{8}8x<5[4:1],,,3x>8[4:1],,,7x<4[4:1],,
{8}1x-5[4:1],,,8x>3[4:1],,,,,
{32}2/4,,,,1,,,,5/7,,,,8,,,,E2,E3,E4,E5,E6,E7,E8,E1,C1f,,,,,,,,
{16}7-3[8:1]/8-4[8:1],,,,7/8,,,,2h[16:3],,,3h[16:3],,,4,,
{16}4/5,,6,6,5,5,7,,3,3,4,4,2,,,,
{16}3v8[8:1]/5v8[8:1],,,,3/5,,,,7h[16:3],,,6h[16:3],,,5,,
{16}5,6,7,8,5,4,3,2,5,6,7,8,1,2,3,4,
{8}5-2[8:1]*-8[8:1],,5,,1,1h[4:1],,3h[4:1],
{8},5h[4:1],,7,5/7,6,4/5,3,
{4}2/4pp4[4:1]*qq4[4:1],4z8b[4:1],,,
{16}1/7,,1/7,,2/8,,2/8,,3,4,3,,2/5,,,,
{16}3-8[8:1]/6>3[8:1],,,,3/6,,,,1h[16:3],,,3h[16:3],,,5,,
{16}4/6,,7,7,5,5,6,,2,2,4,4,3,,,,
{16}4-1[8:1]/6-3[8:1],,,,4/6,,,,8h[16:3],,,7h[16:3],,,6,,
{16}6,7,8,1,5,6,7,8,4,5,6,7,8,1,2,3,
{16}4-1[8:1]/8-5[8:1],,,,4/8,,,,2h[8:1]/6h[8:1],,,4h[8:1]/8h[8:1],,,1<6[8:1]/5>2[8:1],,
{8},1/5,,1x/5x,1x/5x,2,3/4,5,
{16}4/6,,3,4,2,,8,,1/7,,6,5,7,,1,,
{16}2/8,,3,4,2h[8:1],,8,1,7h[8:1],,5,6,4w8[8:1],,3/5,,
{4},2-5[8:1]/6-1[8:1],,7h[4:1]/3>8[8:1],
{24},,,7,6,5,4,,,1,2,3,4,,,8,7,6,1/5,,,,,,
{1}C1f/B2/B3/E3/B6/B7/E7,,E
Re:MASTER
最終更新:2026年04月09日 19:26