アットウィキロゴ

KNØCK ØUT!!

アーティスト DIVELA feat.ラングドシャ

BPM BASIC ADVANCED EXPERT MASTER Re:MASTER
200 4 7+ 11 13+ -

EXPERT MASTER Re:MASTER
譜面制作者 Luxizhel サファ太 -

BASIC


ADVANCED


EXPERT

(128){2}3h[2:1],4h[2:1],(124)5h[2:1],6h[2:1],(120){2}7q4[2:1],,(118){2}E5hf[4:3],(114),(200)3xqq5[4:5],,,{8},7,7,,{2}6pp4[4:5],,,{8},2,2,,3,,3/4,,6,6,5,,5/6,,7/8,,1/2,,3/4,,6,,5/6,,3,3,4,,1/2,,7/8,,5/6,,5-2[4:1]/6-1[4:1],,,,,,3/8,,3/8,,1/2,,3/4,,5/6,,7/8,,2h[4:1],,1,,7h[4:1],,8,,7/8,,1/6,,1/6,,,,

{4}7,7h[4:5],5,,E7,E6,E5,,2,2h[4:5],4,,E3,E4,E5,,6,6h[4:5],5,,E6,E5,E4,,{8}3,,2/4,2/4,,1/8,1/8,,7/5,7/5,,8/1,8h[4:1]/1h[4:1],,,,7,7,8,8,6,,2,2,1,1,3<6[4:1],,,,,,7,7,5,5,6,,3/4,,2/5,2/5,2-5[4:1]/5,,,,,,{2}6h[1:2],E6,E4,E5,Chf[1:1],,,{4},1bx/8bx,

{8}1/2,,2/4,,7/5,7/5,,7/8,,1/2,1/2,,3b/8b,,,7,7,5,,2,2,4,,3/5,3/5>7[2:1],,,,,,,,2h[4:1],,4,4,3,,4/5,,7h[4:1],,5,5,6,,5/4,,2-6[4:1],,,,8-4[4:1],,,,3,,2/5,,2/5,,,,7b/8b,,5/7,,2/4,4/2,,1/2,,7/8,7/8,,1b/6b,,,3,3,2/4,,6,6,7/5,,6/8,6<3[2:1]b/8h[4:3],,,,,,,,
1x/2x,,3,3,4,4,2,,1/8,,7,7,5,5,6,,5/7,,1/8,,2/4,,4-8[4:1]/5-1[4:1],,,,,,1/8,,1/8,,{1}2bh[1:1]/7bh[1:1],

{8},,,7x/8x,,1x/8x,,1x/2x,1x/2x>6[2:1],,,,,,,,7h[8:3],,,5h[8:3],,,4,,3,3,3,3,2/4,2/4,,,6,6,6,6,7/5,7/5,,,{16}6,5,6,,,,,,3,4,3,,,,,,2h[16:3],,,3h[16:3],,,4,,4,,,,1/5,,,,{8}6,7,7/8,,3,2,2/1,,{16}3,4,3,4,3,,,,6,5,6,5,6,,,,{8}3,2,1/2,,6,7,8/7,,{16}6,5,6,5,6,,,,3,4,3,4,3,,,,2,,,,1,8,1,8,1b,,,,2/7,,,,6,5,6,5,6,,,,3,4,3,4,3,,,,{8}2,2,8,8,1,1,7,,5/7,,4/5,,2bh[4:1]/4bh[4:1],,,,1,1,4,3,7,7,5,5,6-1[4:1],,,,2-5[4:1],,,,8,8,5,6,2,2,4,4,3-1[4:1],,,,8,,B5f/B4/B6/B7,,,,,,2,2,4,3,5-8[4:1],,,,1-4[4:1],,,,6,6,5,7,3,3,4,2,{2}1bh[2:1]/8bh[2:1],,

{4}6h[2:1],,5,5,E5/B4,E3/B2,E1/B8,,3h[2:1],,4,4,E5/B5,E7/B7,E1/B1,,6h[1:1],,5,4,3h[1:1],,4,5p4[1:1],,,,,,,,4b/5b,{8}3x/4x,,1/2,,7/8,7/8,,5/6,,3/4,3/4,,1b/6b,,,7,7,6/8,,3,3,2/4,,1/2,1>8[2:1]/2h[4:3],,,,,,,,3,3,4,4,2,,1/8,,7,7,8,8,6,,5/7,,6V82[4:1],,,,
3>7[4:1],,,,5,,5,,2h[4:1]/7h[4:1],,,,E5f/B4/B3/B5/B6,,,,2/8,,2/8,,7/1,,7/1,,2/8,,2/8,,1-5[8:1]/2-5[8:1],,,,8-4[8:1]/7-4[8:1],,,,1-5[8:1]/2-5[8:1],,,,7/8,,7/8,,1b/6b,,,,1/8,,1/8,,2,2,4,4,3,3,4,,4-8[8:1]/3-8[8:1],,,,5-1[8:1]/6-1[8:1],,,,4-8[8:1]/3-8[8:1],,,,5h[4:1]/6h[4:1],,,,{1}B1f/B2/E3/E8/B8,,{8}3,3,4,2,8,8,1/7,,6/8,6/8,,1b-4[8:1]/5b-8[8:1],,,,3b/7b,E

MASTER

(128){2}3h[2:1],4h[2:1],(124)5h[2:1],6h[2:1],(120){8}5,4,3,5,3,4,5,3,(116)E5,E6,E3,E4,C,1x/8x,1bx-5[16:1]/8bx,,

(200){4}1bx,,,,{8}6h[8:3],,,5,,4/7,4/7,,5/2,5/2-4<5-7[8:5],{4},,,{8}8h[4:1],,,7/8,,6/5,6<1[8:1]b/5,,{4}4bp8[8:1],5q1[8:1],3>8[8:1],6<1[8:1],4p7[8:1],5q2[8:1],3>8[8:1],6,6-2[8:1]/7-4[8:1],,1-5[8:1],7-3[8:1],{8}2,2,8,8,1,3,5,5,4b/6b,,{16}6,5,6,5,{4}6<1[8:1],4p8[8:1],5q1[8:1],3>8[8:1],6-1[8:1]b,4,2h[4:1],4h[4:1],5h[4:1],7,{16}4/7,,6,5,,3,4,,1/2,,1/2,,3b/8b,,,,

{8}5h[2:1]/7,,7,,6,6,6V82[4:1],,4,,3-8[4:1],,4,,5h[4:1],,4,,3/5,,3,4,2<6[4:1],,6<2[4:1],,4,,5-8[4:1],,1,,2,,4/6,,7,7,5,,B4h[2:1],,B6h[4:1],,B5,,2h[4:1]/8,,1b-6[8:1],,3,3-8[8:1],,7,7-4[8:1],,8,8>3[8:1],,7,7x,,4b/6b,,{16}7,5,7,5,6-8[8:1],5,6,5,6b,,,,2,4,2,4,3-1[8:1],4,3,4,3b,,,,7h[16:3],,,8,,,1/6,,2,5,2,5,3-5[8:1],5,3,5,3b-8[8:1],,,,6,,,,1/7,,1/7,,{4}1p4[4:1]/7<4[4:1],,,

{12}3/5h[4:1],,,2,4,2,4h[4:1],,,3,,,4/7h[4:1],,,5,6,5,6h[4:1],,,4>6[2:1],,,5h[2:1],,,,,,,,,4/5,,,2,4,3,7,5,6,4>1[8:1],,,4bx/E1f,,,
{8}7x<4[8:1]/8xp4[8:1],,7/8,,1/8,1/8,,1/2q8[8:3],,8,8<2[8:3],,Cf,,,1x-7[8:1]*-6[8:1],,A1/D2/D1,,4-1[8:1]*-2[8:1],,A4/D5/D4,,7/8,7/8,1/6,2/5,3h[4:1]/4>6[4:1],,4b,,5x,5x-1[8:1],,7,7<4[8:1],,1,1,,B2/B3/E4f/B4/B5,,7/8,1/6,,2/1,8w4[8:1]/3,,8bx,,2/6,2/6,3/5,4/6,5/7,4/8>3[8:1],,8<5[8:1]b,,8bx,,3/4,{16}2,5,2,5,{8}2b-5[8:1],,6-1[8:1],,4,2<7[8:1],,6>3[8:1],,3,1p5[8:1]*<6[8:1],,1b,,,4/5,3,2-5[8:1],,8,7,6-1[8:1],,4,2>5[8:1],,1,7w3[8:1],,A7f/D8/D7,,,2b/4b,,3/4,5,{16}4/6,,,6x,{8}5x-1[8:1],,8<5[8:1],,2,3>8[8:1],,5,6h[4:1],,1b,,7/8,1/8,1/2-6[8:1],,6-2[8:1],,8b,8,8,{16}2,1,3,,{8}4/8,5/7w3[8:1],,{1}7b,

{8},,,3x/5x,,2x/4hx[4:1],,1,{4}1s5[4:3],,,,{8}6h[4:1],,5,4h[4:1]/7-2-4[4:1],,,,,1bx,2,3-7[8:1],4,3b/5,,E1/B1/E2,,8bx,7,6-2[8:1],5,6b/4,,E1/B8/E8,,{16}7,5,7,5,6bh[4:1],,,,3,4,3,4,2bh[4:1],,,,1,,,1/8,,,7/8,,7bx/8bx,6x,5x,4x,3x,2x,1x,8x,7bx,,3,4,3,,6b,,2,1,2,,3/8,,,,{4}5>2[8:1]/6,1-5[8:1]*<6[8:1],,{8}3x/4x,2x/5x,{16}1b/6b,,7,8,7,,3b,,6,5,6,,8h[4:1]/2,,,,2x,3,4,5,8x,7,6,5,1x,2,3,4,1x,8,7,6,5x/2x,,,,3-8[8:1],4,3,4,3b,,,,1x/7x,,,,{8}D8/E8,D7/E7,D6/E6,D5/E5,D1/E1,D2/E2,D3/E3,D4/E4,8V24[4:1],,4V68[4:1],,8>4[4:1],,4,,{16}E5,E6,E7,E8,E1,E2,E3,E4,E5/8x,,,,2b/6b,,,,8x/4b,,6,5,6,,4b/5b,,3,4,3,,1/5,,,,{8}2-4[8:1],2,1-6[8:1],1,5-2[8:1],5,7x,,{16}1bx/6b,,7,8,7,,8bx/3b,,2,1,2,,3/8h[4:1],,,,1x,2,3,4,7x,6,5,4,{32}E2,E3,E4,E5,E6,E7,E8,E1,E2,E3,E4,E5,E6,E7,E8,E1,{8}E2/Cf/B4/B5,,,,8b-3[8:1],7,6,5,4<7[8:1],3,2,1,8>3[8:1],7,6x,,4,4,3/5,3/5,{16}2,6,2,6,1s5[4:3],7,1,7,{1},

{8}6,,5/6h[8:3],,,E7,E6,,3,,4/3h[8:3],,,E3,E4,,6,,5/7h[8:3],,,E7,E6,,3,,4/2h[8:3],,,E3,E4,,5h[2:1],,,,E4h[8:11],,,,E6h[8:7],,,,E5h[8:3],,,,{1}C/B2/B7,{4}2/8h[4:3],,,{32}1x,2x,3x,4x,5x,6x,7x,8x,

{8}1bxw5[8:1]b,,1,,3/7,2-4[8:1]/6-8[8:1],,2/6,,1/5,3>2-8[8:1]/7<6-4[8:1],,3b/7b,,1x,2>5[8:1],8,2-8[8:1],6,2-6[8:1],5,2,7,8,1/7,2/6-2[8:1],3/5,4xw8[8:1]/6b,,4b,,2x/6x,2x>5[8:1]/6x,,1,8,3/7<4[8:1],,8-4[8:1],,7>2[8:1]b,,3,3<6[8:1]b,,8,8v3[8:1]*p4[8:1],,A8f,,,2,2-6[8:1],,2/4-8[8:1],,3/4,,7-5[8:1]/5-1[8:1],,7b/5b,,2x/8x,,6,5,4/6,7,3,4,3/5,2,1<6[4:1],,6<1[4:1],,4,,6,7,8-4[8:1]/2,,3-8[8:1]/8,,3/6-1[8:1],,2/6,,{16}3b/8b,,,,2,1,2,1,{32}D3,A3,D4,A4,{16}6x,5x,6x<3[16:5]b,5x,6x,5x,{8},,,,4b/6b,7,4/6,8,3/5,1,3/5,2,3/4,5,4/6,7,1-3[8:1],8-4[8:1],1,8,1-5[8:1],8-6[8:1],1,8,{16}1,2,3,4,8,7,6,5,{32}2bx,3,4,5,6,7,8,1,2x,3,4,5,6,7,8,1,

{4}2bx/E5h[2:3]/B5h[2:2]/B4h[2:1],,,,,,,{16}E2,E7,E3,E6,{4}B3/E4,B7/E7,B5/E5,{16}1/8,,1/8,,1x/8x,,2-8[8:1],4,3,,2b/5b,,,,6b-1[8:1]b/5bv2[8:1]b,,,,5b/6b,E

Re:MASTER


  • MASTER譜面を追加しました。修正等ありましたらよろしくお願いします。(冒頭のBPMは暫定です) -- Sugar (2026-03-30 00:07:30)
  • EXPERT譜面を追加しました。修正等ありましたらよろしくお願いします。 -- Sugar (2026-04-22 22:52:20)
  • MASTER譜面のBPMの修正、SLIDEの速度の修正を行いました。 -- けもがみ (2026-08-05 18:14:57)
名前:
コメント:

タグ:

+ タグ編集
  • タグ:
最終更新:2026年08月05日 18:14