BASIC
ADVANCED
EXPERT
(146){8}
5,,28,,,1,28,,4,,17,,,8,17,,
5,,13,,,2,13,,4,,68,,,7,68,,
3h[4:1]/5,,1,,4/6h[4:1],,8,,3,4,{4}3,68,13,
4/6h[4:1],8,3h[4:1]/5,1,{8}6,5,{4}6,1h[4:1]/3h[4:1],,
3h[4:1]/5,1,4/6h[4:1],8,{8}3,4,{4}3,68,3h[4:1],
2h[4:1],1h[4:1],8h[4:1],7h[4:1],6<3[4:1],,,2b/7b,
34,68,45,18,56,13,{8}7,8,{4}7,
56,13,45,18,34,68,{8}2,1,{4}2,
34,58,45,27,56,14,{8}7,8,{4}7,
56,14,45,27,3b>6[8:3]/4bp5[8:3],,,,
3h[4:1],4,6h[4:1],5,2h[4:1],{8}1,1-5[8:1],{4},,
3h[4:1],4,6h[4:1],5,2h[4:1],1-5[8:1],,,
6h[4:1],5,3h[4:1],4,7h[4:1],{8}8,8-4[8:1],{4},,
6h[4:1],5,3h[4:1],4,7h[4:1],8-4[8:1],,,
5b/6b,{8}2,1,2,,7,8,{1}7z3[8:3],
{8}34,,7,8,7,,2,1,{2}2qq7[16:7],,
1/7^4[8:1],2^5[8:1],{8}7h[4:1],,8,8,,16,,,
3^8[8:1]/5,,,,6^1[8:1],,,,3h[4:1],,4,4,{4}3,25,
4b/8b,15,37,26,3-6[16:3]/7-2[16:3],,,48,
6h[4:1]/7h[4:1],,2h[4:1]/3h[4:1],,2pp4[4:1]/7qq5[4:1],,,27,
34,57,38,15,3b^8[8:1]/7b^4[8:1],,15,37,
1b/6b,28,17,28,{8}5,5,{4}34,1h[8:1]/7h[8:1],2h[8:1]/8h[8:1],
17,28,17,28,{8}5,5,{4}34,7b-4[8:1]/8b-3[8:1],,
16,28,17,28,{8}5,5,34,,16,,8,7,
{4}6h[4:1],4h[4:1],2h[4:1],8,8b-4[8:1],,1bv4[8:1]/7bv4[8:1],,
16,38,16,38,{8}5,5,{4}34,1h[8:1]/6h[8:1],3h[8:1]/8h[8:1],
16,38,16,38,{8}5,5,{4}34,7b-4[8:1]/8b-3[8:1],,
16,38,16,38,{8}5,5,34,,16,,8,7,
{4}6h[4:1],4h[4:1],2h[4:1],8b-4[8:1],,5bw1[16:3],,,
28,{8}56,56,,34,34,,7,8,7h[4:1],,1,,24,24,
,57,57,,2,2,1,,7,7,8,,{16}4,5,4,5,{8}4b,,
17,,34,34,,56,56,,2,1,2h[4:1],,8,,57,57,
,24,24,,7,7,8,,2,2,1,,{16}5,4,5,4,{8}5b,,
27,,34,34,,17,17,,6,5,6h[4:1],,8b,,13,13,
,68,68,,3,3,24,,6,6,57,,{16}1,8,1,8,{8}1b,,
27,,56,56,,28,28,,3,4,3h[4:1],,1b,,68,68,
,13,13,,45,45,36,3b/6b,,{16}1,8,1,8,1,8,1,8,1,8,{4}1b,
6h[8:13],5,7,4,8,{8}3,3h[4:1],{4},,
3h[2:3],4,2,5,1,6h[4:1],,,
1h[4:3]/8bqq5[2:1],,,,4bqq1[2:1]/5h[4:3],,,,
{8}2h[4:1]/8h[4:1],,,3h[8:3]/7h[8:3],,,,4h[2:1]/6h[2:1],,,,,5,,36,27,
{1}1b/8b,,E
MASTER
(146){8}
56,,3,5,,5,3,,34,,6,4,,4,6,,
56,,3,5,,5,3,,34,,6,4,,4,6,,
8^5[8:1],,2^5[8:1],2,,7,8,1,2h[8:5],3,4,5,5h[8:1],,78,,
1^4[8:1],,7^4[8:1],7,,2,1,8,7h[4:3],6,5,4,4h[4:1],,,,
8^5[8:1],,2^5[8:1],2,,7,8,1,2h[2:1],3,4,5,5,,6,5,
{4}4v5[8:1],6q3[8:1],2^7[8:1],5w1[8:1],5b,1w5[8:1],1b,{16}27,,1,8,
{4}1-4[8:1],5-8[8:1],2-7[8:1],6-3[8:1],{16}2,,2,,13,,2,1,3,8,4,7,{4}5,
8-5[8:1],4-1[8:1],7-2[8:1],3-6[8:1],{16}7,,7,,68,,7,8,6,1,5,2,{4}4,
2-5[8:1],6-1[8:1],3-8[8:1],7-4[8:1],{16}3,,3,,24,,3,4,2,5,1,6,{4}8,
7-4[8:1],3-8[8:1],5^2[8:1]*^8[8:1],5,{16}3b/7b,,6,5,6,,18,,3,4,3,4,{8}25,,
3h[2:1]/4,,5,6,7h[8:7],,5,4,3,2,1,8-3[8:1]*-5[8:1],,8,,,
5/6h[2:1],,4,3,2h[8:7],,3,4,5,6,7,8,8h[4:1],{24}2,3,4,{8}5,,
3h[2:1]/4,,5,6,7h[8:7],,5,4,3,2,1,8-3[8:1]*-5[8:1],,8,{4},
4/5p8[4:1],8p3[4:1],3p6[4:1],6p1[4:1],1<5[4:1],5,{16}2,,7,2,7,1,7,8,
{8}7h[2:1],,1,2,3h[8:7],,1,8,7,6,5,4-1[8:1]*-7[8:1],,4,,,
1/2h[2:1],,8,7,6h[8:7],,7,8,1,2,3,4,4h[4:1],{24}6,7,8,{8}1,,
5^3[8:1]/8^5[8:1],,,,1^4[8:1]/4^6[8:1],,,,3h[8:3]/7,6,5,4-1[8:1]*-7[8:1],,4,{4},
2/8<4[4:1],4>8[4:1],8V64[4:1],4V28[4:1],8p4[4:1],4p8[4:1],8,{16}4,,6,4,
{8}6h[4:1],1,4h[4:1],1,6h[4:1],1,4h[4:1],1,7h[4:1],1,5h[4:1],1,6,,4p8[8:1]/8p4[8:1],,
48,,4^7[8:1]/8^3[8:1],,48,,15,,25,58,35,57,2v5[8:1]/8v5[8:1],,28,,
3h[4:1],8,5h[4:1],8,3h[4:1],8,5h[4:1],8,2h[4:1],8,5,37,2-5[8:1]/6-1[8:1],,2b/6b,,
3/7^4[8:1],,3^8[8:1],3,,5,6,7,38,27,1^4[8:1]*^6[8:1]/6,1,1w5[8:1],,1,,
2^5[8:1]/8,,6^1[8:1],6,,4,3,2,16,27,38,27,1/6h[4:1],{24}1,2,3,{8}4,,
1/7^4[8:1],,3^8[8:1],3,,5,6,7,38,27,1w5[8:1]/6,1,1,,7,8,
{4}1-5[8:1],1^4[8:1]*^6[8:1],1,28,2^4[8:1]/6^4[8:1],2^8[8:1]/6^8[8:1],26,48,
2^5[8:1]/8,{8}6^1[8:1],6,,4,3,2,16,27,3/8^3[8:1]*^5[8:1],8,8w4[8:1],,8,,
1/7^4[8:1],,3^8[8:1],3,,5,6,7,38,27,16,27,3h[4:1]/8,{24}8,7,6,{8}5,,
2^5[8:1]/8,,6^1[8:1],6,,4,3,2,16,27,3/8w4[8:1],8,8,,2,1,
{4}8-4[8:1],8^3[8:1]*^5[8:1],8,17,4-1[8:1]*-2[8:1],4-6[8:1]*-7[8:1],4w8[8:1],4,
3-7[8:1]/6,{8}5-1[8:1],5,,2,3,4,5h[2:1],6,7,8,1^4[8:1],,1,1^6[8:1],
,1,1,,56,47,38,{16}2,2,,1,1,,{24}2,3,4,1,8,7,3,4,5,8,7,6,{8}2b,,
3/6-2[8:1],,4-8[8:1],4,,7,6,5,4h[2:1],3,2,1,8^5[8:1],,8,8^3[8:1],
,8,8,,78,16,25,{16}3,3,,4,4,,3,5,3,5,{24}3,2,1,8,7,6,{8}4b/5b,,
2-6[8:1]/4,,8-4[8:1],8,,3,2,1,8h[2:1],7,6,5,4^7[8:1],,4,4^1[8:1],
,4,4,,38,27,16,{16}7,7,,8,8,,{24}7,6,5,8,1,2,6,5,4,1,2,3,{8}7b,,
5/7-3[8:1],,1-5[8:1],1,,6,7,8,1h[2:1],2,3,4,5^2[8:1],,5,5^8[8:1],
,5,5,,25,36,47,{16}6,6,,5,5,,3,6,2,7,1,8,1,8,{24}2,3,4,5,6,7,
{8}1b/8b,,3/6h[2:1],5,,5,3,,3h[4:3]/4,,6,4,,4,6,,
5/6h[4:3],,3,5,,5,3,,3h[4:3]/4,,6,4,,4,6,{16}4,5,
{1}4qq1[2:1]*pp7[2:1],8pp3[2:1]*qq5[2:1],
{8}2-5[8:1],,,6-1[8:1],,,,2qq7[8:3]/3q6[8:3],{4},,,1-4[8:1]/8-5[8:1],
{1}1b/8b,,E
Re:MASTER
最終更新:2026年10月04日 09:38