アットウィキロゴ

愛♡スクリ~ム!

アーティスト AiScReam[黒澤ルビィ(CV.降幡愛)、上原歩夢(CV.大西亜玖璃)、若菜四季(CV.大熊和奏)]

BPM BASIC ADVANCED EXPERT MASTER Re:MASTER
132 2 6 9 11 13

EXPERT MASTER Re:MASTER
譜面制作者 まぐランド 緑風 犬三郎 ぴちネコ

BASIC


ADVANCED


EXPERT

(132)
{1},
{4}34,3>6[1:1]/4h[4:5],{2},
{1},
{4}56,5h[4:5]/6<3[1:1],{2},
{1},
{4}25,3<2[1:1]/4h[4:5],{2},
{1},
{4}57,5h[1:1]/7bx-4-1[4:3]b,{2},
{2},{4},1x/7x,

{4}6,56,{8}3,3,{4}4,
{8}6,6,{4}5,{2}4h[4:1]/7h[4:1],
{4}8,8,{8}57,57,{4}57,
{4}4,3,{8}24,24,{4}24,
{4}3,24,{8}6,6,{4}5,
{8}3,3,{4}4,{2}2h[4:1]/5h[4:1],
{4}1,1,{8}24,24,{4}24,
{4}5,6,{8}57,57,{4}57,

{4}6,57,18,24,
{4}45,57,18,18,
{2}8^5[4:1],4^1[4:1],
{2}7^4[4:1],3^8[4:1],
{4}7,78,{8}6,6,{4}5,
{4}4,34,{8}2,2,{4}1,
{4}34,45,{2}5h[4:1]/6h[4:1],
{4}4x/7x,2x/5x,{8},17,{4}17,

{1}2b^4-8[4:5]/8b^6-2[4:5],
{1},
{1}1b-6-3-8[4:5],
{1},
{1}7bpp2v5[4:5],
{2},{4},46,
{1}E5h[1:1],
{4},B6,B3,Cf,

{4}1bx/7bx,34,28,56,
{4}17,17,28,28,
{4}78,56,34,12,
{4}12,38,47,47,
{4}6h[4:1],8h[4:1],1h[4:1],3,
{4}3h[4:1],1h[4:1],8h[4:1],6p5[2:1],
{2},{4},46,
{1}4pp4[2:1]*qq4[2:1],

{4}56,34,78,12,
{4}56,34,78,12,
{4}46,35,{2}1h[4:1]/8h[4:1],
{4}17,28,37,Cf,
{2}2xq6[4:1],7p3[4:1],
{2}1q5[4:1],8p4[4:1],
{4}3,25,{2}1h[4:1]/6h[4:1],
{4}7,8w4[4:1],{2},

{1}6pp3[8:7],
{2},{4}36,{8},4x/5x,

{2}4hx[4:1]/5hx[4:1],8bhx[4:1],
{1}4pp6[8:3]*qq2[8:3],
{4}E3,C,E7,8,
{4}7,4/6h[4:1],B2f,{8},5x/6x,

{2}5hx[4:1]/6hx[4:1],8bhx[4:1],
{1}4pp4[2:1]*qq4[2:1],
{4}7,6,5,4h[4:3],
{4}3,6,B7f,{8},3x/4x,

{2}3hx[4:1]/4hx[4:1],8bhx[4:1],
{1}5pp5[2:1]*qq5[2:1],
{2}5qq3[4:1],4hx[1:1],
{4}E4,E6,Cf,{8},2x/7x,

{2}2hx[4:1]/7hx[4:1],8bhx[4:1],
{1}4qq5[2:1]/6pp5[2:1],
{4}7,8,1,2,
{4}5b/7b,2b/4b,{2}1bh[4:1]/8bh[4:1],
{2}B2/B3/B4/B5/B6/B7/E3/E5/E7/Cf,{4},3x/6x,

{4}2b/8b,56,17,34,
{4}28,28,17,17,
{4}12,34,56,78,
{4}78,16,25,34,
{4}2h[4:1],4h[4:1],5h[4:1],7,
{4}7h[4:1],5h[4:1],4h[4:1],2p4[2:1],
{2},{4},35,
{1}3qq4[2:1]/5pp4[2:1],

{2}7-4[16:3],3-1[16:3],
{2}8-4[16:3],2-6[16:3],
{4}7,8,{2}1h[4:1]/2h[4:1],
{4}78,12,27,4b/5b,
{4}45,78,45,12,
{4}45,78,45,12,
{4}45,78,{2}2h[4:1]/8h[4:1],
{4}7,5w1[4:1],{2},
{1}3b/7b,
E

MASTER

(132){1},
{1}2xqq5[4:5]/7xpp5[4:5],
,
6h[4:3]/4h[4:3],
5h[4:3]/3h[4:3],
7xpp4[4:5]/2xqq4[4:5],,{2}5h[4:1]/3h[4:1],4h[4:1]/6h[4:1],{4}4/6,{8}3h[4:1]/5h[4:1],,,3b/4b,,2/4,{4}2/4,1>5[4:1],6,7h[4:1],{8}5,5,6,4,{4}3,2/4,{8}1,1h[4:1],
,E3,E4,E5,{4}E6,{8}8,8h[4:1],,E6,E5,E4,{4}E3,7x/1x,2/8<4[4:1],3,2h[4:1],{8}4,4,3,5,{4}6,7/5,{8}8,8h[4:1],
,E8,E1,E2,{4}E3,{8}1,1h[4:1],,E2,E1,E8,{4}E7,8x/2x,{8}3,3,5,5,{4}6/4,6h[4:1]/8h[4:1],,3h[4:1]/1h[4:1],,1<6[8:1]/2>5[8:1],,4x/7x,{8}6/5,5/6,,8/7,{2}7<4[8:1]/8>3[8:1],{4}5x/2x,1V35[4:1],6,8V64[4:1],3,2h[4:1],
{8}4,4,{4}3,5/6,6bx/5bx,8bx/7bx,1bx/2bx,{8}3bx/4bx,5,{4}6/4,{8}4/6,,,7x/3x,{4}3x/7x,8bx>1-4[4:3],
,,,,,E5,E6,7bx>2-6-3[8:9],,,,,,,5x/4x,6h[4:1]/5>3v2<8[8:9],,6,6,6,6,6,6,{8}8,8,
7/1,1/7,6/2,2/6,5/3,3/5,{4}5b/3b,2h[4:5],8,1x-5[8:1],1x-4[8:1],1x-6[8:1],1x,{8}3,3,{4}4/2,{8}6,6,{4}5/7h[1:1],8x-4[8:1],8x-5[8:1],8x-3[8:1],8x,{8}6,6,{4}7/5,8/1,4/2h[1:1],1x-5[8:1],1x-4[8:1],1x-6[8:1],1x,{8}3,3,{4}2/4,{8}6,6,{4}7/5,7-5[8:1]/8-4[8:1],7x/8x,
1-5[8:1]/2-4[8:1],1x/2x,8-4[8:1]/7-5[8:1],8x/7x,{8}1/2,2/1,{4}3b/8b,,8<4[4:1],4>8[4:1],8<4[4:1],4>8[4:1],8,4,6/2,2/6,1>5[4:1],5<1[4:1],1>5[4:1],5<1[4:1],1,5,{8}3x/7x,7bx/3bx,{4}3bx/7bx,8<4[4:1],
4>8[4:1],8<4[4:1],4>8[4:1],8,4,6/2,2/6,1>5[4:1],5<1[4:1],1>5[4:1],5<1[4:1],1,
5,7b/3b,,2h[1:1],{2}4,{4}4,{8}5,5,3,3,{4}4/6,{2}8-5[4:1]*z4[4:1],
{4},8bxh[4:1]/3bxh[4:1],{8},,E7,E6,C,E4,{4}E3,{8},,5v7[4:1]/4v2[4:1],5/4,,,,,{4}3xh[4:3],E4f,
E6f,E5f,{2}6xv4[8:3]*-1-4[8:3],{4},8bxh[4:1]/3bxh[4:1],{8},,E7,E8,
C,E2,{4}E3,{8},,7/1,2/6,{4}5/3,{8}2/8,7/3,{4}6/4h[4:3],E4f,
E6f,E5f,{2}1xs5[4:1],
{4},8bxh[4:1]/3bxh[4:1],{8},,E5,E6,
C,E2,{4}E1,,8h[8:1]/7h[8:1],8/7,{8}5/6,4,{4}3h[4:3],E4f,E6f,E5f,{2}5xw1b[4:1],
{4},8bxh[4:1]/3bxh[4:1],{8},,E5,E4,C,E8,{4}E1,{8},,1/2,1/2,
{4}3/8,{8}8/7,8/7,{4}6/1,3bxh[4:1],
1bxh[4:1],{8}8bx,8,6bx,6,{4}5x/3x,6h[4:5],1x,8x-4[8:1],8x<5[8:1],
8x>3[8:1],8x,{8}7,7,{4}8/1,{8}2,2,{4}4/3h[1:1],1x-5[8:1],1x>4[8:1],
1x<6[8:1],1x,{8}2,2,{4}3/4,{8}7,7,{4}5/6h[1:1],8x-4[8:1],8x<5[8:1],
8x>3[8:1],8x,{8}7,7,{4}6/5,
{8}4,3,{4}2/1,1q5[8:1]/2>4[8:1],1x/2x,8p4[8:1]/7<5[8:1],8x/7x,1q5[8:1]/2>4[8:1],1x/2x,
{8}8/7,7/8,{4}1b/6b,{2}5x-7[8:1]/4x-8[8:1],
5-1[8:1]/4-2[8:1],4-8[8:1]/5-7[8:1],4-2[8:1]/5-1[8:1],{4}4/5,6,
{8}7/8,8/7,{4}6b/1b,{8}3/5,5/3,,2/8,
,1/7,7/1,6,{2}5x-7[8:1]/4x-8[8:1],
5-1[8:1]/4-2[8:1],4-8[8:1]/5-7[8:1],
4-2[8:1]/5-1[8:1],{4}5/4,6,
{8}8/7,7/8,{4}6b/1b,{8}3/5,6,{4}6<1[8:1]/5>2[8:1],
,8xh[4:1]/3xh[4:1],,7b/2b,
E

Re:MASTER

(132)
{1}4-1[2:1]/6-1[2:1],1-5[2:1],6>4-8^2[2:1],2<3[2:1],
{4}4z8-5[2:1],7,,7,6pp7^4[2:1],3,,3,2pp3>8[2:1],7,,7,4V25[4:1]/6V85[4:1],4x/6x,{8},2b/8b,,6,


{16}6h[4:1],,,5,{4}5,4/5,{16}3h[4:1],,,4,{8}4,3,{4}6pp3[4:1],1h[2:1],,
{8}4,4h[8:7],,D8/E8,E7/B6,B2/E3,E4/D4,,1,1h[8:5],,D8/E8,E7/B6,B2/E3,E4/D4,,
{16}3h[4:1],,,4,{4}4,5/4,{16}6h[4:1],,,5,{8}5,6,{4}3qq6[4:1],8h[2:1],,
{8}5,5h[8:7],,D2/E2,E3/B3,B7/E7,E6/D6,,8,8h[8:5],,D2/E2,E3/B3,B7/E7,E6/D6,,
{8}4/6,,3/5^2[8:1],4,5^8[8:1],,3x/5,,{16}2h[4:1],,,1,{8}1,8,5/7,6,{4}3/4,
{4}4-8[8:1],4pp4[4:1]/4qq4[4:1],,{8},5x,{4}5-1[8:1],5pp5[4:1]/5qq5[4:1],,,
{16}3,3,{8}4,{4}2-4[8:1]/5,2-8[8:1]/6h[8:1],2/6h[8:1],{8}5/6,5/6,{4}4/7-5[8:1],3h[8:1]/7-1[8:1],3h[8:1]/7,
{4}3>7[4:1],7V13[4:1],4,{8}7,7,{16}3/8b,,,7,1b/6,,,2,{8}3/8b,4/7,{4}5-1[8:1]b/6,


{2}5bx-8>2-5[4:5],B1/A1,{4}A3,D3h[2:1],,4^1[8:1]b*<7[8:1]b,
{2}4bx-1<7-4[4:5],B8/A8,{4}D7,A6h[2:1],,5w1[8:1]b,
{4}5bx,,{8}1/3,3,2/8,8,1/7,1,6/8,6,1/5,2,3/8,7,
{16}6,5,6,5,7,4,7,4,8,3,8,3,{4}1-5[8:1]b,1b/8b,,{16}6,,6,5,{4}4x>7[4:1]/7,


{4}7b>4[4:1],4b>7[4:1],7b,{8}4,5,{4}6h[8:1]/A1/D2/E2,3h[8:1]/A8/E8/D8,6h[8:1]/A2/E3/B2,3x/6x-3[8:1],
{4}4h[4:1]/6,2b<7[8:1],2b/3,{2}1x-3[8:1]*-7[8:1],8xpp2[8:1]*qq6[8:1],{4}3x-8[8:1],
{4}3b/4-7[8:1],3-8[8:1]/4b,3b/4,{8}5,6,7/8,6,5qq5[4:1]*pp5[4:1],,,,,,
{4}4>7[4:1]/6h[4:1],{8},5,{4}5,3qq5[4:1]b/6pp4[4:1]b,,,3b/6b,4v7[8:1]/5<7[8:1],

{4}5v2[8:1]/4>2[8:1],4v7[8:1]/5<7[8:1],5v2[8:1]/4>2[8:1],4q8[8:1]/5<8[8:1],5p1[8:1]/4>1[8:1],4q8[8:1]/5<8[8:1],4/5,{8}4/5,1b/2b,
{4}3/8,{8}5/6,3/4,2h[4:1]/7h[4:1],{4},3-1[8:1]/6,3/6-8[8:1],{8}3/6,3,4b,{4}4b-7[8:1]/5b<7[8:1],
{4}5-2[8:1]/4>2[8:1],4-7[8:1]/5<7[8:1],5-2[8:1]/4>2[8:1],4-8[8:1]/5<8[8:1],5-1[8:1]/4>1[8:1],4-8[8:1]/5<8[8:1],4/5,{8}4/5,1b/2b,
{8}3/8,,4^2[8:1]b/5<7[8:1]b,4/5,A5/D5f/A4,,,1/7,6,1/5,1/5bx-8>2-5[2:1],,{2}1h[2:1]/5b,
{1},{16},,E6,,,E5,,,E4,,,,,4x/7x,4x/7x,,


{24}6,5,6,5,6,5,{4}6,{48}6h[4:1]/4bx,3x,2x,1x,,,{8},,,4/8,1/3,{4}2v4[4:1]*<6[4:1],,,
{8}7x^2[8:1],7x,{2}7xv2[8:1]*-5>4-2[8:1],{16},3x,3xh[8:5],,{4}B2,B7,E1f,{16},3x/6x,3x/6x,,
{24}4,5,4,5,4,5,{4}4>1[8:1]b,4x/6h[4:1],,{8}4/8,1/3,{4}2v4[4:1]*<6[4:1],,,
{4}1x^3p6[8:3]b*^7q4[8:3]b,1bx,,{16},3x,3xh[8:5],,{4}E2,E8,D1f,{8},5x/2x,

{24}3x,4,3,4,3,4,{4}3,{48}6h[4:1]/3bx,D3,A2,D2,A1f,,{8},,,4/8,1/3,{4}2v4[4:1]*<6[4:1],,,
{8}3x/5x>1v8<6[2:1],3xh[8:11]/5x,{4},,{16},5,5x,,{4}B3,B6,Cf,{8},3x/6x,
{24}5x,4,5,4,5,4,{4}5w1[8:1]b,{32}5bx,A1f/D1/D2,,,{4},{8},4/8,1/3,{4}2v4[4:1]*<6[4:1],,,
{8}1/3,2/7,6/8,4/5,3/4,1/8,5/6,1/8,{32}1x/2x,3,4,5,6,7,8,1,2qq4[2:1],3,4,5,6,7pp4[8:3],8,1,
{1}2x,{48}4x/B6,E7,D7,,,,{8},{48}4x>6[4:1]/B8,E8,A7,,,,{8},


{4}6b-8-2-4[4:1],4b>6[4:1],6b,{8}4,5,6/A1/D2/E2,6,3/A8/E8/D8,3,6/A2/E3/B2,6,3x/6x-3[8:1],,
{4}4h[4:1]/6b,2b<7[8:1],2b/3,{8}1x-3[8:1]*-7[8:1],1,,,{8}8xpp2[8:1]*qq6[8:1],8,,,{4}3x>8[8:1]b,
{4}3b/4v7[8:1]b,3>8[8:1]b/4b,3b/4,{8}5,6,7/8,6,4/5xqq5[4:1]*pp5[4:1],,,,,,
{4}4>7[4:1]/6h[4:1],{8},5,{4}5,3qq5[4:1]b/6pp4[4:1]b,,,3b/6b,4q8[8:1]*<8[8:1],

{8}4x,,4>1[8:1],3/5,{48}4x/E5,E4,E3,E2,,,{16},5,{8}5<8[8:1],6/4,{48}5x/E5,E6,E7,E8,,,{16},4,{8}4>1[8:1],3/5,{48}4x/E5,E4,E3,E2,,,{8},5,2b/6b,
{8}1/7,,5/6,3/4,2h[4:1]/7h[4:1],,,3-1[8:1]/6,4,3/6-8[8:1],5,{8}3/6,3,4b/8bx,{4}4bq8[8:1]*<8[8:1]/8bx,
{8}4x,,4>1[8:1],3/5,{48}4x/E5,E4,E3,E2,,,{16},5,{8}5<8[8:1],6/4,{48}5x/E5,E6,E7,E8,,,{16},4,{8}4>1[8:1],3/5,{48}4x/E5,E4,E3,E2,,,{8},5,2b/6b,
{8}1/7,,4/5,4h[8:1]/5h[8:1],{48},3x/6x,2x/7x,{16}1bxh[16:3]/8bxh[16:3],,,,,{8}3/7,5/6,1/8,2xqq4[4:1]/7xpp4[4:1],,{4}2x/7x,,2b/7b,E

  • Re:MASTER譜面を追加しました。シアミラ
  • 2026/04/02ついかしましたさるくんありがとう。。 -- やあきましゅう (2026-04-02 09:28:06)
名前:
コメント:

タグ:

+ タグ編集
  • タグ:
最終更新:2026年05月30日 00:16