アットウィキロゴ

テレパシ

アーティスト DECO*27

BPM BASIC ADVANCED EXPERT MASTER Re:MASTER
205 4 7+ 10+ 13 -

EXPERT MASTER Re:MASTER
譜面制作者 サファ太 はっぴー -

BASIC


ADVANCED


EXPERT

(205){8},,,,,
5x/4x,5x/4x,,{1}3x-5-1-7[4:5],,
{4}8h[4:1]/2h[4:1],,7h[4:1]/1h[4:1],,
8b,71,8,71,2,3,5,6bx/2bx,
1,82,1,82,7,6,4,7bx/3bx,
1,82,1,82,3,4,6,7bx/3bx,
6-1[4:1],,2-5[4:1],,7,7,61,,

5h[2:5]/2,,3,4,4,,4,,E5,,E6,,6,5,4,,
5/3h[2:5],,4,4,5,,4,,E4,,E3,,2,12,8h[4:1]/3h[4:1],,
7,78,2,12,3,43,6,65,78,78,12,1^6[2:1]/2,,,,5x/4x,
3,42,6,75,3,1,8,6,75,75,8z4[4:3]/4,,,,,,
B3,B2,B1,B8,B7,B6,B5h[1:1],,B3h[2:1],,,,C/B4,,,,
1,1,42,42,5,5,64,64,65,65,7h[8:3],{8}1,1,,82,,7b/3b,{4}7b/3b,,

5bx/4bx,12,54,78,78,65,43,12,
8^5[4:1],,1^4[4:1],,6,78,6b/1b,,
12,65,78,43,52,52,63,74,
7h[4:1],5h[4:1],4h[4:1],2h[4:1],8b,6b/4b,7b/3b,,
7h[4:1]/5,6,4/2h[4:1],3,12,43,65,78,
6/1^4[4:1],,5^8[4:1],,1,43,5b/2b,,
4/2h[4:1],1,7h[4:1]/5,8,78,65,43,12,
8^5[4:1]/3,,4^1[4:1],,8,65,7b/4b,,

6h[4:1],8h[4:1],7,{8}61,6/1-5-3[8:3],{4},,,8x,
3h[4:1],1h[4:1],2,{8}83,8-4-6[8:3]/3,{4},,,1bx,
7h[4:1],5h[4:1],6,{8}74,7/4-8-2[8:3],{4},,,5x,
2h[4:1],1h[4:1],8,{8}78,78,,6/1-5[4:1],{4},,,

7,6,5h[1:1],,E5,E6,E7,,1,2,3h[1:1],,E5,E4,E3,,
1bxh[4:1]/2bxh[4:1],,8h[4:1]/1h[4:1],,7h[4:1]/8h[4:1],,7h[4:1]/8h[4:1],,
E1,C,E5h[8:3]f,,,,,7x/1x,

{8}2,2,1,,83,,83,,7,7,8,,61,,61,,
{4}2h[4:1],3h[4:1],4,{8}65,65,,7/4^1[4:1],{4},,8x,
{8}7,7,8,,61,,61,,2,2,1,,83,,83,,
{4}7h[4:1],6h[4:1],5,{8}43,43,,5/2>6[8:3],{4},,,
{8}71,71,71,,82,82,8/2h[4:5],,{1},B1/B2/E2,

{4}8,8,75,75,4,4,53,53,
43,23,{8}1,1,,82,,7/3-6[4:1],,,,,8x,8x,,7<2[8:5]/1h[8:15],,,{4},,

{1},{8}8b,,75,75,,42,42,,
{4}54,8b,71,71,83,61,8b/3b,,
7^4[4:1],,3^8[4:1],,{8}7,7h[4:1],,8,,61,,5/2h[4:1],
,4,{4}4,54,68,54,13,84,8b/4b,
75,42,{16}3hx[16:3],,,4hx[16:3],,,5x,,
{4},8bxp3[8:3]/2bx,,{8},1h[4:1],
,2,{4}2,43,65,78,78,6b/1b,,
2h[4:1],4h[4:1],5h[4:1],7h[4:1],3h[4:1],1h[4:1],8h[4:1],{8}6,6,
,75,{4}75,54,42,8bx/3bx,6bx/1bx-5[8:1]b,8bx,,

2h[4:7],,4,3,8,8,3,4,
75,75,53,{8}2,2h[4:1],,1,,83,{4}83,,
7h[4:7],,5,6,1,1,6,5,
42,42,64,{8}7,7h[4:1],,8,,61,{4}61,52,
3^6[4:1],,7^2[4:1],,{8}3,3,,42,,51,{4}51,
2^7[4:1],,6^3[4:1],,{8}2,2,,13,,84,{4}84,
75,75,81,81,42,42,81,{8}7,7h[4:1],
,5,{4}5h[4:1],6,65,7h[4:1],1h[4:1],3h[4:1],Chf[4:1],
B8/B1/E1,,,,,,,,
E

MASTER

(205){8}
,,,,,45,{4}4h[4:1]/5h[4:1],,3-1[8:1]/4-7[8:1],E3/E5/B3/B4f,,
{6}78,56,34,12,78,56,{4}3-7[8:1]/4-8[8:1],,5^2[8:1]/6^1[8:1],,

D3/D7/A2/A3/A6/A7/E3/E7f/B2/B3/B6/B7,,1-5[8:1],17,8-4[8:1],2-6[8:1]/8,5-7[8:1],1,
1-5[8:1],17,8-4[8:1],28,1-5[8:1],1/7-3[8:1],4-2[8:1],8,
8-4[8:1],28,1-5[8:1],17,8-4[8:1],2-6[8:1]/8,5-7[8:1],1,
1-5[8:1],17,8-4[8:1],28,1-5[8:1],1/7^4[8:1],3,1pp1[2:1]b,

5h[2:1],,,24,2h[2:1]/4h[2:1],,,35,
4h[2:1]/6h[2:1],,,{8}37,37,,E4,,D3,{4},8qq8[2:1]b,
4h[2:1],,,5-1[8:3]/7-3[8:3],,,,2qq6[4:3]/4,
5h[4:3],,,,{8},46,,3h[4:1]/5h[4:1],,,3b/4b,,

1-5[8:1],,1,,1-5[8:1],,1,,2-4[8:1],8-6[8:1],2,8,1x-5[8:1],,1,,
1-5[8:1],,1,,1-5[8:1],,7,7h[4:1],,5,,46,4-1[8:1]/6,,7,,
8-4[8:1],,8,,8-4[8:1],,8,,7-5[8:1],1-3[8:1],7,1,8x-4[8:1],,8,,
8-4[8:1],,8,,8-4[8:1],,2,1-5[8:1],,1-4[8:1]*-6[8:1],,1bx,{4},8<1[4:3],

E5f,,,8<1[4:3],Cf,,,8<1[4:3],
E1f,,,8,E1/E8/B1/B7,,{8},4,4,35,
3h[8:1]/5h[8:1],,6,6,5,4,3,3h[8:1]/4h[8:1],,4h[8:1]/5h[8:1],,5h[8:1]/6h[8:1],,4,3,2,
2h[4:1],,8,7,6h[4:1],,4,4,,35,{4}3-1[8:1]/5-7[8:1],3b/5b,2x-7[8:1]/8x-5[8:1],

28,4-1[8:1]/6-3[8:1],46,2-5[8:1]/8-3[8:1],28,4-7[8:1]/6-1[8:1],46,2x/8x,
1>5[4:1],5<1[4:1],1>5[4:1],5,1,37,2bh[8:1]/6bh[8:1],1x-4[8:1]/7x-2[8:1],
17,3-6[8:1]/5-8[8:1],35,1-6[8:1]/7-4[8:1],17,3-8[8:1]/5-2[8:1],35,{8}1x/7x,2,
35,,28,7,{4}46,3-5[8:1]/7-1[8:1],37,C/B2/B6,1V75[4:1]/8V24[4:1],1x/8x,
,1b/8b,18,2-5[8:1]/4-8[8:1],24,6-1[8:1]/7-4[8:1],67,2x/3x,
D3/D4f/A2/A3,E2/B2/B3/B4f,E8/B5f/B6/B7,D6f/D7/A6/A7,8x>7[8:3],7x,8x,1x-3[8:1]*-5[8:1],
1,2-5[8:1]/4-8[8:1],24,6-1[8:1]/7-4[8:1],67,2^7[8:1]/3^6[8:1],,8x-4[8:1],
38,{8}2,2,5,4,{4}3-6[8:1],3/7-2[8:1],3-6[8:1]/7,3/7-2[8:1],4-1[8:1]*-8[8:1]/7,

E4/E5/B4f,,,{8}1x/8x,1x>6[4:1]/8x,,6>1[4:1],,7,,,E6/B5/B6,,
24,,18,,57,,1x/8x,1x/8x<3[4:1],,3<8[4:1],,2,,,E4/B3/B4,,
57,,18,,24,,4x/5x,4x>7[4:1]/5x,,7>4[4:1],,6,,,E6/B5/B6,,
24,,18,,57,,4x/5x,4x/5x<2[4:1],,2<5[4:1],,3h[8:3],,,,,

{12}45,,6,5,,,57,,,,,,45,,3,4,,,24,,,,,,
45,,6,5,,,57,,,,,,45,,3,{4}4,24,2x/4xz8[8:3],
3bh[4:1],,E4f,,,,,37,
4h[4:1]/6h[4:1],{12},,35,35,,46,,,7,7,5,6,2,4,3,{8}5,,6b-3[1:7],,

1,1,1,,8,8,8,,1b,1b,{4}1b,8h[8:1],8h[8:1],
2,8,2,8,1,7,1,7,
{8}8,8,8,,1,1,1,,8b,8b,{4}8b,1h[8:1],1h[8:1],
E2,B1,B7,E7,D8,D1,D2,{8}1-5[8:1],8-6[8:1],
1-3[8:1],8-4[8:1],1-5[8:1],8-6[8:1],{2}1>8[8:3]b,,,

E1/E2/B2/B3/B7/B8,{8},5,5,46,4h[8:1]/6h[8:1],,3,2,5,6,4,3h[4:1],
,1h[4:1],,8h[4:1],,6,6,5,7h[4:1],,3,3,4,1-3[8:1]*-7[8:1],,1-5[8:1],
,1-4[8:1]*-6[8:1],,,,,36,36,,18,1-6-2-5[2:1]/8-3-7-4[2:1],,{2},

,,{16}2,4,3,,3,,7,5,6,,2,4,3,,6,5,
{8}8w4[8:1]b,,8b,,2,3,4-1[8:1],5,{4}4-7[8:1]/6,4-8[8:1],4,2x/6^1[8:1],
56,3^8[8:1],34,6^1[8:1],6^3[8:1],6-2[8:1],,{8}8,8,
2,5,3,3,6,4,3qq5[8:3]/7qq8[8:3],,,,,,D7f/A6/A7,,5x/8x-5[8:1],,
4-1[8:1]/8,,46,,{16}28,,,35,,,46,,{4}3-8[8:1]/7-4[8:1],3b/7b,1x/5x,1x/5x,
D3h[8:1]/D4fh[8:1]/A2h[8:1]/A3h[8:1],E2h[8:1]/B2h[8:1]/B3h[8:1]/B4fh[8:1],E8h[8:1]/B5fh[8:1]/B6h[8:1]/B7h[8:1],D6fh[8:1]/D7h[8:1]/A6h[8:1]/A7h[8:1],8V24-6[8:3],7x,8x,8x,
5-1[8:1]/7-1[8:1],57,2-8[8:1]/4-8[8:1],24,5-1[8:1]/6-2[8:1],56,3-7[8:1]/4-8[8:1],34,
{8}6,6,5,7,2,4,{4}3-6[8:1],3/7-2[8:1],3-6[8:1]/7,3/7-2[8:1],4-1[8:1]*-8[8:1]/7,

E4/E5/B4f,,,{8},2-6[8:1]/4,,2/5-8[8:1],,1,1-5[8:1],,1,,
46,,2,1,8,,57,5/7-3[8:1],,4-1[8:1]/7,,8,8-4[8:1],,8,,
35,,7,8,1,,24,2-6[8:1]/4,,2/5-8[8:1],,1,1-5[8:1],,1,,
46,,2,1,8,,57,5/7-2[8:1],,3-6[8:1]/7,,1,{4}1,8<4[4:1],
4>8[4:1],8<4[4:1],4>8[4:1],8<4[4:1],4>8[4:1],8,4,1>5[4:1],
5<1[4:1],1>5[4:1],5<1[4:1],1>5[4:1],5<1[4:1],1,5,8-4[8:1]*-6[8:1],
8,1-3[8:1]*-5[8:1],1,8qq6[8:1],8pp2[8:1],8-4[8:1],8,3,
1-6[8:1]/2-5[8:1],1b/2b,1-5[8:1]/2-6[8:1],1b/2b,1-6[8:1]/2-5[8:1],1b/2b,1/2qq4[8:3],8,
{1}Cf/E6/B5/B6,,E

Re:MASTER


名前:
コメント:

タグ:

+ タグ編集
  • タグ:
最終更新:2026年03月23日 19:46