アットウィキロゴ

ダイダイダイダイダイキライ

アーティスト 雨良 Amala

BPM BASIC ADVANCED EXPERT MASTER Re:MASTER
130 4 6 10 11+ 13+

EXPERT MASTER Re:MASTER
譜面制作者 Jack 緑風 犬三郎 サファ太

BASIC


ADVANCED


EXPERT

(130)
{1},

{4}5h[4:1],6h[4:1],{2}7-5[8:1],
{4}3h[4:1],4,6h[4:1],5,
{2}2-4[8:1],7-5[8:1],
{4}2h[4:1],3h[4:1],4,35,
{4}2b/6b,78,{8}6,6,{4}5,
{4}47,38,{8}2,2,{4}4,
{4}35,{8}7,7,{4}5,46,
{4}35,17,{8}28,2xh[4:1]/8xh[4:1],{4},

{4}3b/7b,{8}6,6,{4}57,{8}8,8,
{4}17,{8}2,2,{2}8-4[8:1],
{8}3,3,4,4,{2}1-5[8:1],
{4}6,4V25[8:3]/8V61[8:3],{2},
{4}3bx/7bx,{8}6,6,{4}5,{8}28,28,
{8},3,3,4,{4}2,{8}17,17,
{8},2,{4}2h[4:1],4h[4:1],5h[4:1],
{4}7,7x^4[4:1]/8x^3[4:1],{2},

{2}1b/2b,{4},3,
{2}4h[4:3],{4},5,
{2}5h[16:3]/6h[16:3],3h[16:3]/4h[16:3],
{2}5h[16:3]/6h[16:3],{8}E6,E5,{4}E4,
{4}2b/7b,34,{8}8,8,{4}17,
{4}56,{8}3,3,{4}24,18,
{16}2h[16:3],,,3h[16:3],,,{8}4,{16}7h[16:3],,,6h[16:3],,,{8}5,
{4}2bx-4[8:1]b,7-5[8:1],,4x,

{2}2b-6[8:1]/7b-1[8:1],{16}4h[16:3],,,3h[16:3],,,{8}2,
{8}2,4,6,8,{16}8,,,1x/7x,,,{8}26,
{2}2-5[8:1]/6-1[8:1],{16}8h[16:3],,,7h[16:3],,,{8}6,
{8}6,8,2,4,{16}4,,,2x/6x,,,{8}47,
{2}4-8[8:1]/7-5[8:1],{16}1h[16:3],,,2h[16:3],,,{8}3,
{8}3,1,7,5,{16}5,,,3x/4x,,,{8}25,
{2}2^5[8:1]/5^8[8:1],{16}1h[16:3],,,3h[16:3],,,{8}4,
{8}15,15,15,15,{16}2x/4x,,,5x/7x,,,{8}1x/8x,

{2}1-4[8:1]b/8-5[8:1]b,{8}6,6,{4}57,
{8}3,3,{4}2x-6[8:1],7x-1[8:1],3x-5[8:1],
{4}8,8,{16}2h[16:3],,,3h[16:3],,,{8}4,
{4}4,25,{8}6,5,{4}47,
{4}1b/6b,{8}8,8,2,2,{4}34,
{4}1h[8:1]/2h[8:1],7h[8:1]/8h[8:1],{8}56,4,{4}56,
{8}4,4,8,8,2,2h[4:1],,4,
{8}3,1,8,6,5,3,{4}2^4q5^7[4:3],
{1},

{4}5h[8:3]/6,{8},6,{4}5,45,
{4}4h[8:3]/5,{8},5,{4}4,34,
{4}2h[4:1],4h[4:1],5h[4:1],7h[4:1],
{4}5,57,{2}8-5[8:1]b,
{4}4x,35,{8}6,6,{4}5,
{8}3,3,{4}4-1[8:1],,8,
{8}12,12,{4}12,{8}78,78,78,1/6h[4:1],
{8},5,6,8,1,3,4,6,

{4}7h[4:3],5,5,5,
{2}6-3[8:1],2h[4:1]/4h[4:1],
{4}35,{8}B4,B8,{2}2x-6[8:1],
{4}7h[4:1],5,{16}5x/7x,,,4x/5x,,,{8}2x/4x,
{4}2bx/4bx,18,5h[4:1]/6,{8}7,7,
{2}8-4[8:1],1h[4:1]/5h[4:1],
{4}24,{8}B5,B1,{2}7x^4[8:1],
{4}3h[8:1],4h[8:1],{16}2x/4x,,,4x/5x,,,{8}5x/7x,

{1}5xh[4:7]/7xh[4:3],
{1}4h[4:7],
{1}2h[2:3],
{4}4,4>6[2:1],{2},
{4}3,3,4,4,
{4}5,5,6,6,
{4}5,4,3,{8}2,2,
{1}2q4[2:1],
{4}5h[8:1]/6h[8:1],2h[8:1]/4h[8:1],7h[8:1]/8h[8:1],1/2-5-8-3-6[8:7],

{1}Cf,
{8}7,6,5,4,{16}38,,,1x/6x,,,{8}34,
{2}3q8[8:1]/4^7[8:1],{16}1h[16:3],,,2h[16:3],,,{8}3,
{8}4,5,6,7,{16}18,,,2x/5x,,,{8}48,
{2}4^1[8:1]/8^5[8:1],{16}6h[16:3],,,7h[16:3],,,{8}8,
{8}1,2,3,4,{16}25,,,4x/7x,,,{8}56,
{2}5^2[8:1]/6p1[8:1],{16}8h[16:3],,,7h[16:3],,,{8}6,
{8}5,4,3,2,{16}1x/8x,,,5x/7x,,,{8}3x/4x,

{2}3-8[8:1]b/4-7[8:1]b,{8}1x,1x,{4}2x/8x,
{8}6,6,{4}57,{8}34,2,{4}34,
{8}34,2,{4}3>6[16:5]/4p5[16:5],{2},
{8}4,4,5,6,4,3,{4}3-6[8:1]b*-7[8:1]b,
{4},1x/8x,{8}2,2,{4}34,
{4}2h[8:1]/4h[8:1],5h[8:1]/7h[8:1],{8}78,78,12,12,
{4}38,{8}46,46,3x/7x,2b/8b,,1,
{8}2,4,5,7,8,8,{4}1^4[8:1]/7,
{4}8^5[8:1],3,{8}1,1,2x/8x,3x/7x,
{1}4b/6b,
E

MASTER

(130)
{8}5h[8:1]/3h[8:1],,6h[8:1]/4h[8:1],,3,3,2/4,4/2,,7,7,5,5,6,6,7/5,
{4}7h[8:1]/5h[8:1],6h[8:1]/4h[8:1],5h[8:1]/3h[8:1],4h[8:1]/2h[8:1],
{8},3,2,2,4,4,1-5[8:1],1,6b,,
{8}7,7,5,5,6,6,7/5,,2,2,4,4,3,3,2/4,,7,7,7/5,,2,2,2/4,,7,7,3,3,5,,2b/6b,,
{8}8<5[8:1],8,4,,2>5[8:1],2,6,,8<5[8:1],8,2>5[8:1],2,6,,
{8}6,7,8,3,2,1,7,6,5,3,4-1[8:1],,5-8[8:1],,,,
{8}1b,8,7,6,5-1[8:1]/6-1[8:1],,,,8,1,2,3,4-8[8:1]/3-8[8:1],,,,
{8}1,8,7,6,5,4,3-6[8:1],3,7v2[8:1],7,1>6[8:3],1,8b,,,,
{4}7xh[2:1],,E6,E5,3h[2:1],,E5,E6,
{2}7h[2:1],5h[2:1],4h[2:1],
{8}2,2,4,,3b/5b,,2,2,1,1,4,4,5,5,8,8,7,,1b,1b,
{16}2h[16:3],,,3h[16:3],,,4,,5h[16:3],,,6h[16:3],,,7,,
{4}7,B5/B4/E5f,2x/7x,1-5[8:1]/8-4[8:1],8x/1x,3h[8:1]/6h[8:1],4h[8:1]/7h[8:1],
{8}8-4[8:1],8,2-6[8:1],2,7-3[8:1],7,1,1b,,1/2,
{4}1-5[8:1]/2-4[8:1],2x/1x,7/8,
{8}1>3[8:1],1,7<5[8:1],7,2-6[8:1],2,8,8b,,8/7,
{4}8-4[8:1]/7-5[8:1],7x/8x,2/1,
{8}8-4[8:1],8,2-7[8:1],2,6-3[8:1],6,1,1b,,1/2,
{4}1-5[8:1]/2-4[8:1],2x/1x,7/8,
{8}1-5[8:1],1,7-3[8:1],7,2-6[8:1],2,8,8,
{4}7/3,2-6[8:1]/8-4[8:1],2bx/8bx,3x/7x,2-5[8:1],1-6[8:1],2-5[8:1],1-6[8:1],
{8}3,3,8,8,1,,6,6h[8:1],8,8h[8:1],1,1h[8:1],3,3h[8:1],5,,1-5[8:1]/7-3[8:1],,7x/1x,,
{4}2x/6x,1V35[4:1],5V71[4:1],1,5,
{4}3h[8:1]/7h[8:1],2h[8:1]/6h[8:1],3h[8:1]/7h[8:1],3>8[8:1]/7<4[8:1],,
{8},1,1,4,3,6,4,5,
{4}2V41[2:1]/7V58[2:1],,,,,
{4}2h[8:1]/8h[8:1],1h[8:1]/7h[8:1],
{8}2/6,2/6>3[8:1],,1,1h[4:1],,4,4,3/5,,,
{16}6,5,6,,3,4,3,,6,5,6,,3,4,3,,,,
{8}1-5[8:1],1,7-3[8:1],7,2h[4:1],,8,8b,4,4,1,1,5,5,8,8,
{4}7h[8:1]/5h[8:1],1h[8:1]/3h[8:1],8h[8:1]/6h[8:1],4h[8:1]/2h[8:1],
{8}1b,1b,1b,6,8b,8b,8b,3h[4:1],,1,1h[4:1],,8h[4:1],,6,6,1b/5b,,
{8}2h[4:1],,E4,E5,E6,,E8,E1,E2,,Ch[4:1],,,,
{8}8x,8x,1xV35[4:1],1x,6,,7,,3h[4:1]/8h[4:1],,,,
{16}A1/D2f/A2,,,B7/Cf/B3,,,D6f/A6/A5,,8x,,,,
{8}7,5,4,2,
{4}2-7-3-6[8:5]b,,,,7h[4:1],
{8}5,5,8xV64[4:1],8x,3,,2,,1h[4:1]/6h[4:1],,,,
{16}D8f/A8/A7,,,Cf/B2/B6,,,D4f/A3/A4,,
{8}1xh[8:7],,,,,,,4,4h[8:7],,,,,,,5,5h[8:7],,,,,,,8,8h[8:7],,,,,,,1,
{4}1,8,7/2h[4:1],6,5,4,3/5h[4:1],2,1,8,7/2h[4:1],
{8}6,6,6h[1:1],,{4},,,
{4}8-5[8:1],8x,3b/7b,2-6[8:1]/8-4[8:1],8x/2x,,,
{8}1-5[8:1],1,7-3[8:1],7,2-6[8:1],2,8,8b,,
{8}8/7,8-4[8:1]/7-5[8:1],,8x/7x,,2/1,2/1,
{8}8<6[8:1],8,2>4[8:1],2,7-3[8:1],7,1,1b,,
{8}1/2,1-5[8:1]/2-4[8:1],,1x/2x,,8/7,7/8,
{8}1-5[8:1],1,7-2[8:1],7,3-6[8:1],3,8,8b,,
{8}8/7,8-4[8:1]/7-5[8:1],,8x/7x,,2/1,1/2,
{8}8-4[8:1],8,2-6[8:1],2,7-3[8:1],7,1,1,2/6,6/2,
{4}1-5[8:1]/7-3[8:1],1bx/7bx,2xh[8:1]/6xh[8:1],
{8}7-4[8:1],7,8-3[8:1],8,7-4[8:1],7,8-3[8:1],8,6,6,1,1,8,,
{8}3,3h[8:1],1,1h[8:1],8,8h[8:1],6,6h[8:1],
{4}4,8-4[8:1]/2-6[8:1],8x/2x,3xh[8:1]/7xh[8:1],8V64[4:1],4V28[4:1],8,4,
{4}2h[8:1]/6h[8:1],3h[8:1]/7h[8:1],2h[8:1]/6h[8:1],
{8}2>5[8:1]/6<1[8:1],6/2,,,,8,8,5,6,2,2,4,
{4}1>5[4:1],5<1[4:1],1>5[4:1],5,1,Ch[8:1]/B7h[8:1]/B3h[8:1],,,,
E

Re:MASTER

(130)
{8}46,,46,,4-2[8:1]/5,5,5,,2bx/4,,24,,2-8[8:1]/5,5,5,,
6/8x,,68,,5/8-6[8:1],5,5,,4/6x,,37,,6^4[8:1],4,3,,
3bxh[8:1]/4x,,3h[8:1]/4,,2/4-1[8:1],2,2,,1x/3h[8:1],,1/3h[8:1],,1-4[8:1]/2,2,2,,
3h[8:1]/4x,,3h[8:1]/4,,2/4-8[8:1],2,2,,1h[8:1]/8x,,1h[8:1]/8,,1^6[8:1]/2v5[8:1],3,,,
4/7b,,{16}6,5,6,5,7h[16:3],,,4,6,,57,,4/8h[16:3],,,5,7,5,7,5,6,4,5,3,4,,15,,
2,4,2,4,2h[8:1],,5,3,5,3,5h[8:1],,2,4,2,4,{8}1-5[8:1],1,7>4p6[2:1],7,5x,,,,
5b,5,4/6-1-4[4:1],3h[8:3]/7,,,,,2-7[8:1]/6-3[8:1],15,,,2-5[8:1]/6-1[8:1],37,,,
8-4pp6[4:1],8,4,3,2-5v3[4:1],2,6,7,8v5[8:1],7,1^4[8:1],2,{4}6x,7pp3pp6[4:5],

5b,,E5/B4/B5,,E1/B1/B8,,C,1qq6qq3[4:5],
E8/B7/B8,,E5/B4/B5,,1h[2:1],,{8}4-8[8:1],3,{4}2v5[8:1]*^7[8:1],
2b,6h[8:1],6h[8:1],7h[8:1]/B5,3h[8:1],3h[8:1],2h[8:1]/B4,3h[8:1],
{8}12,12,18,18,78,78,67,67,5/6h[4:1],,E5f,,24,45,5-1[8:1]/7,,

5b/6b,{16}7,7,7h[8:1],,2,1,3,,7,8,{8}6-1[8:1],4,2^5[8:1]/6,4,2qq8[8:1]/6v4[8:1],8,2b/6b,,1^4[8:1]*-7^6[8:1],,
1b-5[8:1],,1,{16}7,7,7h[8:1],,5,6,3,4,2,8,{8}1b,57,1v6[8:1]/8-5[8:1],24,1b/8b,,12,38,
5b-1[8:1]/6,,35,{16}2,2,2h[8:1],,1,3,{8}7-4[8:1],5,3-8[8:1]/7,1,3pp5[8:1]/7v1[8:1],5,3b/7b,,48,37,
26,{16}3,3,{8}4-8-6[4:1],1,2-5-1[4:1],3,,,8b,24,4-8[8:1]/5,5/7-3-6-4[8:3],,,,,
1xw5[8:1],,1b,,3/7h[8:1],1,3h[8:1]/5,8,57,45,24,24,{32}5h[8:1]/E2,B1,B8,E8,,,,,6h[8:1]/E4,B4,B5,E6,,,,,
7h[8:1]/E2,B1,B8,E8,{8},A3/A6/E4/E5f/E6/B4/B5,,1x-3[8:1]/8-4[8:1],7,1-5[8:1]/8,,7^2[8:1],6,3pp5[8:1],4,6q2[8:1],7,B4f,,
3b-7-1[4:1],2,6,5,4^7[8:1],3,2,1,7x/8,5,68,4,1v4[8:1]/5^8[8:1]b,23,1b/5b,,
57,34,1/5q1[8:1]b,2v4[8:1]/4,,,,{16}7,5,6,3,4,2,{8}8h[8:1],5h[8:1],1h[8:1],4h[8:1],2<6q3v5[4:3],,
{1}B4h[2:1],

{16}3xh[16:3],,,2h[16:3],{8},1,1,,2/8h[4:3],,E5h[2:1],,B4,,B5,,47,3,
2h[16:3]/5,{16},3h[16:3],{8},4,4p8[8:1],,E7h[2:1]/B6h[2:1]/B7h[2:1],,Ch[4:1],,,,8-4[8:1],1,2,3x,
2b-4-2[4:1],2,C,,8-6-8[4:1],8,B5,,2-5-1^3[8:3],2,1,,8x,,E3/E6h[1:1]/B2/B3/B5h[1:1]/B6h[1:1],,
8-2[8:1]b,1,8,,8-3[8:1]b,1,8,,1b/8b,{16}7,8,6,1,5,2,5,3,5,3,4x,4x,4x,4x,
{8}Cf,,A3/A7h[8:3]/E3/E4/E7h[16:5]/E8h[16:7]/B3/B7h[4:1],,1q6[4:1],2,,,8b,,{16}4,3,5,6,E5h[32:7]/B4h[16:3],,,,8x,,,,
2h[8:1],,1,3,8b,,8b,,E4,B4,B6,E7h[8:1],,1,1,1,2bx/8bxh[4:1],,,,4,,3,3,2bxh[8:1]/4bxh[8:1],,,1bxh[8:1]/8bxh[8:1],{8},5bx/7bx,
4b/8b,,A2h[8:3]/A5/E2h[16:7]/E3h[16:5]/E5/E6/B2h[4:1]/B5,,8p3[4:1],7,,,1x,,{16}5,6,4,3,E5h[32:7]/B5h[16:3],,,,1x,,,,
7h[8:1],,8,6,1b,,1b,,E6,B5,B3,E3h[8:1],,1,1,1,2bxh[4:1]/8bx,,,,1,,13,48,5bx/7bx-3[8:1],,,3bx-7[8:1]b,,,8bx,,

{2}D2/A1/A2/E2f/B1/B2,,2h[4:11],1q4[2:1],
,4qq4[2:1],,4h[4:1],
{4}E4,E5,3q5[2:1]/E6,E7,E8,E1,6p4[2:1]/E2,E3,
E4,C,E1,{8}1-4-1[2:1],8-5[8:3]b,{4},,,2-8[8:1]/6^4[8:1],
,E5f,{8}7^2[8:1],5,3bxv8[8:1]/7bxv4[8:1]b,,

Cf,,,,{32}2,3,4,5,6,7,8,1,{8}2-7[8:1],,2b/6b-4[8:1],4b,2bv7-1[4:1]b/6bv3^5[4:1],8b,2b/6b,,,37,
4bxh[4:1]/8-4[8:1],,8,{16}2,2,2h[8:1],,4,3,6,5,7,1,{8}8b,57,1v4[8:1]/8-6^5[8:1],24,1b/8b,,12,38,
5b-1[8:1]/6,,35,{16}2,2,2h[8:1],,1,3,7^5[8:1],8,{8}6,3b-1[8:1]/7b,1b,3bv8^2[4:1]/7bv4-6[4:1]b,5b,3b/7b,,,48,
26,{16}3,3,{8}4-8-6[4:1],1,2-5-1[4:1],3,,,8b,57,1-4[8:1]b/8,2/4-8-6-2[8:3],6,6,5,4,
3xw7[8:1],,3b,,1h[8:1]/5,3,4/8h[8:1],6,17,34,16,35,{32}6h[8:1]/E2,B1,B8,E8,,,,,7h[8:1]/E4,B4,B5,E6,,,,,
8h[8:1]/E2,B1,B8,E8,{8},A3/A6/E4/E5f/E6/B4/B5,,1x-5[8:1]/8x-6[8:1],2,1/8-4[8:1],,2^7[8:1]b,1,6qq4[8:1]b,5,3p7[8:1]b,2,5b,,
2/6b-2-8[4:1],5,3,4,5^2[8:1]b,6,7,8,1/2x,4,13,5,4^1[8:1]b/8v5[8:1],67,4b/8b,,
24,35,4v1^3[4:1]b/6,3/7v8[8:1],,,,{16}7,5,6,3,4,2,8,,68,,46,,24,,28,,37,,
4h[8:1]/6h[8:1],,,,4h[8:1]/6h[8:1],,,,47,,48,,4/8-5[8:1]b,3,2,1,{32}8bx`E2,B2,B3,E4,{4}A4,E

名前:
コメント:

タグ:

+ タグ編集
  • タグ:
最終更新:2026年06月21日 14:45