BASIC
ADVANCED
EXPERT
(143)
{1},
{2},{4},45,
{4}6h[2:1],5,3h[2:1],4,
{4}6h[4:1],5,{2}4^2[8:1],
{4}5h[2:1],4,2h[2:1],3,
{4}5h[4:1],4,{2}3^5[8:1],
{4}6,78,{8}2,2,{4}1,
{4}3,12,{8}8,8bx,{4}1bx^4[4:1],
{4},5^8[4:1],,1,
{8}2,2,8,8,1,1,{4}7bx-2-6-3-5[1:1],
{1},
{2},{4}4bx/6bx,3bx/5bx-3-6-2-7[1:1],
{1},
{2},{4}18,36,
{4}36,{8}2,2,{4}1,{8}7,7,
{4}8,16,{2}2^4[8:1]/5,
{4}6,{8}7,7,{4}8,{8}2,2,
{4}1,38,{2}4/7^5[8:1],
{2}3h[2:1],5h[2:1],
{4}4,6,57,5x/7x,
{2}B6h[2:3],B3h[1:1],
{1}Ch[2:1],
{8}2,2,8,8,1,1,{4}26,
{2}3v5[4:1]/7v5[4:1],{4},8,
{2}1-5[8:1]/2-6[8:1],{8}47,47,{4}56,
{2}7-3[8:1]/8-4[8:1],{8}25,25,{4}34,
{8}2,2,{4}1,38,56,
{8}7,7,{4}8,16,34,
{2}1-5[8:1]/2-6[8:1],{8}47,47,{4}56,
{2}7-3[8:1]/8-4[8:1],{8}25,25,{4}34,
{8}2,2,{4}1,{8}7,7,{4}8,
{4}16,16,3b/8b,1b/6b,
{4}2h[4:1],4h[4:1],{8}3,3,{4}45,
{8}6,6,{4}57,{8}8,1x/7x,{4}1x/7x,
{2}3^8[4:1],7^4[4:1],
{8}3,3,{4}1,18,7-3-6-4[4:3]/8,
{1},
{8}3,3,{4}24,{8}1,2x/8x,{4}2x/8x,
{2}6^1[4:1],2^5[4:1],
{8}6,6,{4}57,18,4b/6b,
{4}7x,5,3x,24,
{4}7b,5bx,3b,2bx/4bx,
{1}2-8^1-5[4:3]/4,
{8}6x,6x,{4}5x^2[4:1]b/6x^1[4:1]b,{2},
{16}1x/2x,,,1xh[16:9]/2xh[16:9],,,{8},{2},
{16}7x/8x,,,7xh[16:9]/8xh[16:9],,,{8},{2},
{16}13,,,1h[16:9]/3h[16:9],,,{8},{2},
{16}68,,,6h[16:9]/8h[16:9],,,{8},{2},
{16}7h[16:3],,,5h[16:3],,,{8}6,{16}2h[16:3],,,4h[16:3],,,{8}3,
{16}6h[16:3],,,5h[16:3],,,{8}7,{16}3h[16:3],,,4h[16:3],,,{8}2,
{2}2-6[4:1],7-3[4:1],
{4}2,{8}1,1,{4}18,7p2q8[1:1]/8,
{1},
{1}Cfh[2:1],
{2},2xh[4:1]/7xh[4:1],
{8}2,2,{4}1,38,16,
{8}7,7,{4}8,16,38,
{8}7,7,5,5,{4}6,34,
{2}1-5[8:1]/2-6[8:1],{8}4x/7x,4x/7x,{4}4x/7x,
{2}2v4[4:1]*-6[4:1],{4},5x/7x,
{2}5/7-3[4:1]*v5[4:1],{4},2xh[4:1]/4xh[4:1],
{4},A4/B3/B4/E3/E4/E5,,A7/B6/B7/B8/E8,
{1}1bxh[1:1],
{1}Ch[1:1],
{1},
{1}B2h[1:1]/B7h[1:1]/Ch[1:1],
{2},{4},1x/7x,
{2}3-7[8:1]/4-8[8:1],{8}1x/6x,1x/6x,{4}1x/6x,
{2}5-1[8:1]/6-2[8:1],{8}3x/8x,3x/8x,{4}3x/8x,
{4}2h[4:1],4h[4:1],5h[4:1],7h[4:1],
{8}2,2,{4}1,{8}7,7,{4}8,
{2}5-1[8:1]/6-2[8:1],{8}3x/8x,3x/8x,{4}3x/8x,
{2}3-7[8:1]/4-8[8:1],{8}1x/6x,1x/6x,{4}1x/6x,
{4}7h[4:1],5h[4:1],4h[4:1],2h[4:1],
{8}7,7,{4}8,1b/6b,3b/8b,
{2}5h[4:1]/6h[4:1],{8}78,78,{4}16,
{8}56,56,{4}47,{8}8,1x/2x,{4}1x/2x,
{2}3^6[4:1]/8,7^2[4:1],
{8}3,3,{4}4,25,47,
{2}1h[4:1]/2h[4:1],{8}78,78,{4}16,
{8}56,56,{4}47,{8}8,1x/2x,{4}1x/2x,
{4}8h[4:1],2h[4:1],4h[4:1],6-2[8:3]*v4[8:3],
{2},{4},{8}17,17,
{4}1bx/7bxh[4:1],8,2h[4:1]/8,1,
{8}7,7,8,6,1,2x/4x,{4}2x/4x,
{4}5^8[4:1],1^4[4:1],,8x,
{4}8x,B3/B5/B7/C,,{8}28,28,
{4}2bxh[4:1]/8bx,1,1/7h[4:1],8,
{8}2,2,1,3,8,5x/7x,{4}5x/7x,
{4}4^1[4:1],8^5[4:1],,1x,
{8}28,28,{4}28,{8}17,17,{4}1h[4:13]/7b-3[8:1]b,
{1},
{2},{4}B3/E4,B6/E6,
{1},
{4}6,7,{2}2-6[8:1]b/8bx-4[8:1],
E
MASTER
(143)
{4}3/5,6/4,3/5,4/6,5/3,4/6,5/4,
{8}3<5[8:1],3,6,,7<5[8:1],7,4,,3<6p1[2:1]b,3,4h[2:1],,,,,,
{8}2x/5x-7[8:1],5/2,3,,3-5[8:1],3,6,,7>2p6[2:1]b,7,5h[2:1],,,,,,
{8}7x/4xp6[4:1],4/7,6,,5q3[4:1],5,3,,4v6[4:1]b,4,6q2[4:1]b,6,5h[2:1],,,3b,3b,,
{8}1h[4:1]/2-4[8:1],,,,8h[4:1]/7-5[8:1],,,,2v4v6[2:1],2,5,,7,7,
{4}7,4/7h[4:5],5,4,5,4,5-2[8:1],7b-4[8:1],1b,4/2h[4:3],5,4,5,
{8}2/4,5,4/2,1,6b/8b,,1/7,1/7,
{16}2,6,2,6,3,5,3,5,{4}4-6[8:1],,
{16}7,5,7,5,6,4,6,4,{4}5qq3[8:1],,
{16}2,4,2,4,3,5,3,5,{4}4-6[8:1],,
{16}7,5,7,5,8,4,8,4,1-5[8:1],,
{8},4>5[2:3],,E6,E7,E8,,E2,E3,E4,,E5,C,E1,,E5,,
{8}6h[16:1]/5h[16:1],6h[16:1]/5h[16:1],
{4}4h[4:3]/7h[4:3],,,,
{8}5v3[4:1]/7-3[4:1],7/5,,,,,2/4,,3,3,3/4,3,6,6,6/5,6,5/4,3,4/5,6,
{4}7/8,2v4[8:1]/6v4[8:1],2bx/6bx<1[8:1],
{8}6/2,3,4/8,{16}6,5,7v2[8:1],,,,
{8}3-8[8:1],4,7,7,1/6,
{16}2,4,3,,4/5,,6,5,7-4[8:1],4,8-3[8:1],,7,,8,,,,
{8}2/5,3/4,3/4,4/5,{16}6,5,
{8}7,8/4,8/4,7v5[8:1]/3v5[8:1],,7b/3b>8[8:1],,7/3,6,1/5,{16}3,4,2,,,,
{8}1/7,6/5,3/4,{16}2,1>4[8:1],,8,
{8}1,6,7,8/4,{16}2,1,3-8[8:1]*-7[8:1],,
{8}4,,,1/6,6/1,8/7,6/5,3/4,1bx/2bx,8bx/7bx,6bx/5bx,3bx/7bx-4[8:1],,
{8}1-5[8:1],8,7-4[8:1],8,1,8,2h[16:1]/6h[16:1],6/2,
{16}3,5,4,5,3,,
{8}1/7,7/1,E3/B3/E4,E7/B7/E8,,
{8}2-5[8:1],2,1<6[4:1],1,6>3[4:1],6,3,,1v3[8:1]b*v7[8:1]b,1,,,
{8}6/4,6/4,8/2-5[8:1],,8-4[8:1],1,2>5[8:1],1,8,1,7h[16:1]/3h[16:1],3/7,
{16}6,4,5,4,6,,
{8}8/2,8/2,E7/B6/E6,E2/B2/E3,,
{8}7-3[8:1],7,8-2[8:1],8,6<3[4:1],6,4,,5v3[8:1]b*v7[8:1]b,5,,,
{8}2-6[8:1]/8-4[8:1],1,,,7xh[8:1]/5h[8:1],,5xh[8:1]/7h[8:1],,4,4,5,5,
{4}4xh[8:1]/3h[8:1],3xh[8:1]/4qq2[4:1]*pp6[4:1],,,7/1,C/B6/B2/B4,8-4[8:1]/7-1[8:1],,
{16}1/5,,2,4,,7,5,,8b/4b,,,,7,7,5,5,
{8}6<3>6[2:3]b,,4,4,4,4,4,4,5,5,5,5,5,5,5,4,
{8}5/3>6<3[2:3]b,,5,5,5,5,5,5,4,4,4,4,4,4,4,5,
{8}4/6V83V16[4:5]b,,4,4,4,4,4,4,5,5,5,5,5,5,4/7,,
{8}6-4[8:1],6,4,,3,3,4/2v4v6[2:1],,5,5,5,,7,7,7/6,,8h[4:3]/5h[4:3],,,,,,,,
{8}Ch[4:1]/B2h[4:1]/B6h[4:1]/B4h[4:1],,,,1bxpp6[8:5],8,7h[1:1],,,,,,
{16},5,5h[8:1],,
{8},,8/1,1/8,{16}2,1,3-8[8:1],,
{8}5,6,7,1/7,8/3,8/3,
{16}2,1,,7,8,,6,5,6,,8/2,,3,4,3,4,2,5,1,,6,5,6,5,7v5[8:1]*v1[8:1],4,8,,
{4},2-6[8:1]/4-8[8:1],,7/5,
{16}4,6,4,6,3,5,3,5,2,4,2,,C/B7/A7/B3/A3/B5/A5,,,,
{16}2,8,2,8,1,7,1,7,8,6,8,,C/B7/A7/B3/A3/B5/A5,,,,
{8}2x-6[8:1]/4xv6[8:1],1,,,7-3[8:1]/5v3[8:1],8,5<4[4:3],,
{4}1b,,,,3,3,3,3/4p1[4:3]b,2bh[4:3],,,,
{4}7,7,7,7/E6,7/E5,7/E4,7/C,8b-2[8:1]/1b-5[8:1],1x/8x<5[8:1],
{8}4,3,2/4,{16}3,4,2v7[8:1],,,,
{8}2/6<1[8:1],5,6/2,3,4/8,
{16}7,5,6,,4/5,,3,4,2-6[8:1],5,1-5[8:1],,2b,,1b,,,,
{8}7/4,6/5,6/5,4/5,{16}3,4,2,,
{8}1/5,1/5,7-1[8:1]/8-4[8:1],,8b/7b<4[8:1],,3,2,1/5,{16}2,4,3b,,,,
{8}6/5,7/8,1/2,{16}3,4>1[8:1],,5,4,,
{8}6,7,8/2,{16}7,5,6-1[8:1]*v3[8:1],,
{8}6,,,8/4,4/8,1/2,8/7,6/5,3bx/4bx,2bx/1bx,8bx/7bx,6bx/2bx-5[8:1],,
{8}2/8-4[8:1],1,8/2>5[8:1],1,2/8,1,3h[16:1]/7h[16:1],7/3,
{16}6,4,5,4,6,,
{8}8/2,8/2,E7/B6/E6,E2/B2/E3,,
{8}7-3[8:1],7,8>4[4:1],8,4<8[4:1],4,8,,1v3[8:1]b*v7[8:1]b,1,1b,,
{8}6/4,8/2,3/7-4[8:1],,7/1-5[8:1],8,1/7<4[8:1],8,7/1,8,2h[16:1]/6h[16:1],6/2,
{16}3,5,4,5,3,,
{8}1/7,7/1,B3/E4/B4,E7/B7/B6,,
{8}2-6[8:1],2,1-7[8:1],1,3>6[4:1],3,5,,4v2[8:1]b*v6[8:1]b,4,
{4}4b,4-1[8:1]*-7[8:1],4>5[4:3],Cf,,,,
{16}3,4,2,5,1-5[8:1],6,8,7,1,,B8/E8,,E7/B6,,,,
{8}3-8[8:1],4-7[8:1],3,4,2-6[8:1]*>5[8:1],1,2,,7/4,
{16}6,5,7,4,8,3,1v3[8:1]*v7[8:1],,1,,
{4}1-4[8:1]*-6[8:1],A1f,3/7,
{16}1/2,,2/1,,3/8h[4:1],,,,5,7,2,4,1-5[8:1],,
{8}8,1,B7/E7,B3/E4,,2>5[8:1],8<5[8:1],2,8,1w5[8:1],,1,,7/3,
{16}2,8,1,7,1,,
{8}2-5[8:1]/6-1[8:1],7/3,{32}6bx/2bx,Cf,,,{8},
{4}3x/7xpp4[1:1],,,,,3,3h[8:1]/4h[8:1],5h[8:1]/6h[8:1],
{4}7z3[2:1],,,,2-6[8:1],4-8[2:1],1,
E
Re:MASTER
最終更新:2026年06月18日 22:19