BASIC
ADVANCED
EXPERT
(193){4}1/5,1h[8:3]/5h[8:3],{8},,,2x/4x,,3x/5x,,4x/6x,,7,7,,{4}8/4,8h[8:3]/4h[8:3],{8},,,7x/5x,,6x/4x,,5x/3x,,2/6,2/6,,7h[4:1],,5,,3,3,4,,2h[4:1],,4,,6,6,5,,4/7,,4/7,,5/2,,5/2,,4/7,,5/6,,5/2,,4/3,,{1}2pp5[4:5]/1qq6[4:5],,{4}4<8[4:5]/7h[2:3],,,,,,,,{8}1h[4:1]/2h[4:1],,,1>4[8:7]/2h[8:9],{4},,,,,,3/4,1x,4/5,8x,3/4,1b,5/6,8bx,5/7,5/7,4/2,4/2,{8}3,3,5,5,4,,3b/6b,,
{4}1/2,4/5,7/8,4/5,{8}2,2,4,,6,6,5,,{4}8/7,5/4,2/1,5/4,{8}7,7,5,,3,3,4,,2h[4:1]/5h[4:1],,,3h[4:1]/4h[4:1],,,2x/5x,,7h[4:1]/4h[4:1],,,6h[4:1]/5h[4:1],,,7x/4x,,{2}8<5[4:1],1>4[4:1],{16}7hx[16:3],,,5x,,,4x/8x,,4b/8b,,,,,,,,
{8}3,3,5,,2/4,,2/4h[4:3],,E2,,E3,,E4,,5,,6,6,4,,7/5,,7/5h[4:3],,E8,,E7,,E6,,4,,3,,2h[4:5],,4,4,4,,3,3,3,,1,,3/8,,7h[4:1],,8,,2h[4:1],,
1,1,,3/4,3/4,,5/6,,4b/7b,,6,6,4,,5/7,,7/5h[4:3],,E8,,E7,,E6,,4,,3,3,5,,4/2,,2/4h[4:3],,E2,,E3,,E4,,5,,6,,7h[4:5],,5,5,5,,6,6,6,,8,,6/5,,{16}3,4,3,,,,6,5,6,,,,3,4,3,,,,6,5,6,,,,4/7,,,,2b/5b,,,,
{4}3h[4:1]/4h[4:1],,2/5,{8}1,1h[8:7],,,3,,4,,5,,6,,6,,5/7,5/7,,8h[8:7],,,6,,5,,4,,4-8[4:1],,,,7,7h[4:1],,1,,7x/8x,7x/8x,,6x/5x,,3-8[4:1]/4,,,,,,2,2h[4:1],,1,,2/4,2/4,,1b/5b,,,,
{2}2q6[2:1]/4h[4:7],,7p3[2:1],,{4}E2/D2,E3/D3,E4/D4,E5/D5,E6/D6,E7/D7,E8/D8,,{2}1V75[2:1]/6h[4:7],,4V28[2:1],,{8}7/8,,7/8,,6,6h[4:1],,5,,3/4,3/4,,2/5,,,,2/1,,2/1,,3,3h[4:1],,4,,6/5,6/5,,7/4,,,,{2}E6/B6,E4/B3,Chf[2:1]/B5/B4,,
{2}1bx-5[8:1]/2bx-5[8:1],8-4[8:1]/7-4[8:1],{8}2,2,4,,7,7,5,,{2}8-4[8:1]/7-4[8:1],1-5[8:1]/2-5[8:1],{8}7,7,5,,2,2,4,,5-1[8:1]/7h[4:1],,,,4-8[8:1]/2h[4:1],,,,1,1,2/4,,8,8,5/7,,3/4,,3/4,,2/5,2/5,,5/6,,7,7h[4:1],,8,,1b/6b,,2,2,4,4,3,3,7,7,5,5,6,,7h[8:1]/8h[8:1],,6h[8:1]/5h[8:1],,
7,7,5,5,6,6,2,2,4,4,3,,2h[8:1]/1h[8:1],,3h[8:1]/4h[8:1],,2,2,8,8,1,1,7-5[8:1],,1-3[8:1],,8-4[8:1],,2,,2,,{16}3,4,3,4,3,,6,5,6,5,6,,4/7,,4/7,,,,5/2,,5/2,,,,3/7,,,,2b/8b,,,,
{1}Cf/B3/B7,,{2}6h[2:1],5h[2:1],4h[2:1],{4}3,2x/4x,1h[4:1]/3h[4:1],,2h[4:1]/4h[4:1],,7h[4:1]/5h[4:1],,8h[4:1]/6h[4:1],,5/7,4/5,2/4,4/5,{8}6,6,4,,3/7,,,,7-3[8:1]/8-4[8:1],,,,2-6[8:1]/1-5[8:1],,,,7,7,8,6,2,2,4,3,5-1[8:1]/6-1[8:1],,,,4-8[8:1]/3-8[8:1],,,,6,6,5,,1h[4:1]/8h[4:1],,,,{16}2,1,2,1,2,1,2,1,2,,,,3b/8b,,,,7,8,7,8,7,8,7,8,7,,,,6b/1b,,,,{8}2/4,2/4,,,7/5,7/5,,,8h[8:1]/6h[8:1],,3h[8:1]/4h[8:1],,1h[8:1]/3h[8:1],,5bh[8:1]/6bh[8:1],,7,7,1,1,2/8,2/8,,3h[4:1],,1,1h[4:1],,8h[4:1],,6,,{1}5V31[4:5]/6p8[4:5],,{16}1,8,1,8,1,8,1,8,2,7,2,7,2,7,2,7,{4}1x-5[8:1],8b,E
MASTER
(193){8}6/8,,5<8[16:3]/7,,,,,1x/8x,,1/3,,2>5[16:3]/4,,6x,6x,,7/8,,3h[8:3]/5>1[4:1],,,,,3/7,,2/6,,3/7-4[8:1],,2,2,,1,1/4,2,2/4,3,3/4,3,4/5,6,5/6,7,5/7,8,5/8,7,5/7,{16}6,5,6,5,6,,3,4,3,4,3,,7,5,7,5,7,,2,4,2,4,2,4,3,5,3,5,4,6,4,6,{1}5bx<4[4:3]b,{4}Cf,,{16},,A3/A6,D4/D6,A4/A5,,,,{4}2hx[4:7]/5x,5,4,4,5,4,3,{8}4,4,3x/5x,,,2xV85V31[8:7]/4hx[8:3],,,,,4x,,,,6,,{16}7-3[8:1],8,7,8,{4}7,2b>5[8:1],2,7bq3[8:1],7,5b-1[8:1],5,1bx-3[8:1]/8bx-3[8:1],8-6[8:1]/1-6[8:1],1>3[8:1]/8-3[8:1],8<6[8:1]/1-6[8:1],1/8,{8}5x/6x,5/6,4x/5x,4/5,{16}3,4,3,,2bx/5bx,,,,4/7,,6,,6,5,,4/7,,6,,6,5,,,,5/2,,3,,3,4,,5/2,,3,,3,4,,,,1/2,,7,,7,8,,1/6,,7,,7,{4}8x-5[8:1],8x-3[8:1]/2x,8x-4[8:1]/6x,2x/8x,3x/7x,{16}1x/7hx[4:1],2,3,4,5,,2x/8hx[4:1],3,4,5,6,,8b,,8b,,1x/2hx[4:1],8,7,6,5,,7x/1hx[4:1],6,5,4,3,,1b,,1b,,{4}2/4-1-5-8[2:1],,,1x,{16}7x/8x,,,1x/2x,,,1x/8x,,{4}1x-5[8:1]/8x-4[8:1],1b/8b,
{16}3/6,,7,,2,1,2,,8,,3,,6,5,6,5,6,,5/7,,7,8,7,8,7,,1,,2/8,,,,3/7,,4,,6,5,6,,4,,7,,2,1,2,1,2,,1/3,,3,4,3,4,3,,{24}A2,E3,E4,{16}E5,,,,6h[8:1],,5,6,5,,7h[8:1],,5,7,5,,8,,3/8,,{8}2-6[8:1],2,7>2[8:1],7,5-1[8:1],5,8,,{16}2/7,,6,,3,4,3,,4/5,,6,5,6,5,7h[4:1],,,,8,1,2/6,,2/6,,2/6,,2/6,5,4,,,,3,,3/4,,2,1,2,,8,,1/8,,7,8,7,8,7,,5/6,,3,4,3,4,3,,1/2,,3/8,,,,6,,6/5,,7,8,7,,1,,8/1,,
2,1,2,1,2,,4/3,,6,5,6,5,6,,{24}A7,E7,E6,{16}E5,,,,3h[8:1],,4,3,4,,2h[8:1],,4,2,4,,1,,6/1,,{8}7-3[8:1],7,2-5[8:1],2,6,7,8/4,,{16}3x/7x,4,5,6,7,8,1x/5x,4,3,2,1,8,3x/7x,,3hx[4:1]/7x,,,,{24}1x,2,3,4,5,6,7,8,1x,2,3,4,5,6,7,{8}1bx/8bx,,
{8}1-4[8:1],,1b,,6-4[8:1],,2,2h[8:3],,,3,,3/4,,5,6,5h[4:1]/7,,7,,4/6,4/6,,3/5-3[8:1],,,2,,1,,2,4,3V15[8:3],,,,7,7h[4:1],,5,,,{12}6x,5,4,6x,5,4,6x,5,4,{8}7x<3[4:1],,,,2,2h[4:1],,1h[4:1],,{16}3,4,5h[8:3],,8,7,6h[8:1],,,,4/7,,,,{1}8x>7[4:5]/2h[2:3],,8x<1[4:5]/7h[2:3],,{2}8V64[2:1],4V28[2:1],8V63[2:1],3,{8}2/4,,1/5,,2/4,2/4,,5/7,,4/8,4-1[8:1]/8-5[8:1],,4bx/8bx,,,5/8,,6/7,6/7,,5/8,,1/4,1/4,,2/3,2-7[8:1]/3-6[8:1],,2bx/3bx,,,,{12}B2,B3,B4,B5,B6,B7,A7,A6,A5,A4,A3,A2,D8,D7,D6,D5,D4,D3,{4}D1/A1/D2,1b/6b,
{16}7/8,,4/5,,3,1,2,,8,,1/6,,7,8,7,8,6,,2,,3,4,3,4,2-5[8:1],,6-1[8:1],,2,,6,,4,,8,,3,1,2,,8,,7/8,,6,5,6,5,7b,,7b,,1b,,2b/8b,,,,1b/3b,,1b-6[8:1]b/3b-6[8:1]b,,,,1b/3b,,,,7,5,7,,4,,3/5,,2,1,2,1,3,,4/7,,6,5,6,5,7>2[8:1],,,,2,,,,1hx[8:1]/2hx[8:1],,,,4hx[8:1]/3hx[8:1],,,,5x/6x,,5x/6x,,,,7x<4[8:1]/8x,,,,
3,2,1,,1,,7x/8x,,,,2b/6b,,,,8,,1/2,,3,4,2,,6,,7/8,,6,5,6,5,7,,3,,2,1,2,1,3-8[8:1],,7-4[8:1],,3,,7,,1,,5,,2,4,3,,5,,5/6,,7,8,7,8,6b,,6b,,4b,,3b/5b,,,,2b/4b,,2b-7[8:1]b/4b-7[8:1]b,,,,2b/4b,,,,6,8,6,,1,,2/5,,3,4,3,4,2,,1/8,,7,5,7,5,6-3[8:1],,,,3,,,,2,1,2,1,2,,7,8,7,8,7,,2/5,,2/5h[4:1],,,,2,3,4xw8[8:1],,4x,,4x,,,,D2/A2/E2/B2/A6/D7/E7/B6,,,,
{2}8bxpp5>1[4:5],B2,B4,E3,5h[4:1]/7h[4:1],4h[4:1]/2h[4:1],{8}4/6,4/6,7h[4:1]/5,5,{16}8x,1,2,3,8x,7,6,5,{2}4x/8xz4[4:1],7xs3[4:1],4xz8[4:1],6xz2[4:1],{8}1,1,2,2,3/4,4/5,5/6,7bxqq3[8:3]b/8bxq3[8:3]b,{4},,,E2/B2/A2/A5/E6/B5,1b-5[8:1]b/8b-4[8:1]b,
{16}1b/8b,,,,3x,,3x/4x,,2,1,2,1,2,,4/8,,7,5,7,5,6-3[8:1],,6,,1-5[8:1],,1,,5,,6,,7,8,7,,1,,2/5,,3,4,3,4,3,,1/2,,7,1,7,1,8x,8x,8x,8x,8bx,,,,{32}1b,2,3,4,5,6,7,8,1b,2,3,4,5,6,7,8,1b,2,3,4,5,6,7,8,1b/5b,,,,,,,,8b,7,6,5,4,3,2,1,8b,7,6,5,4,3,2,1,8b,7,6,5,4,3,2,1,8b/4b,,,,,,,,{8}3x-8[8:1]b/7x-4[8:1]b,3/7,,,6x-1[8:1]b/2x-5[8:1]b,6/2,,,1bx/5bx,,3b/7b,,6b/8b,,1b/3b,,6b/7b,6/7,,1/2,3b/4b,3/4,,7-2>3-6[8:5]/8,,,E5,,C,,E1,,{1}7x>6[2:1]/8x,1x>8[2:1]/8x,{16}1,8,1,8,1,8,2,7,1,8,3,6,1,8,3,6,2bw6[8:1]b,,,,2b,E
Re:MASTER
- MASTER譜面を追加しました。修正等ありましたらよろしくお願いします。 -- Sugar (2026-03-19 16:58:51)
- MASTER譜面のノーツの配置ミス、SLIDEの速度の修正を行いました。 -- けもがみ (2026-03-24 20:13:38)
- EXPERT譜面を追加しました。修正等ありましたらよろしくお願いします。 -- Sugar (2026-04-21 21:47:25)
最終更新:2026年04月21日 21:47