アットウィキロゴ

浮世絵横丁

アーティスト 魔界都市ニイガタ(黄泉路テヂーモ×dawn-system×かゆき)

BPM BASIC ADVANCED EXPERT MASTER Re:MASTER
192 4 7 11 13+ -

EXPERT MASTER Re:MASTER
譜面制作者 アマリリス Jack -

BASIC


ADVANCED


EXPERT


MASTER


(192)

{1},{8}4/6,,,{2}3h[2:1],4h[2:1],5-3[8:1],{8},
{8}3/5,,,{2}6h[2:1],5h[2:1],{4}4-8[8:1],3,{8},
{8}1,1,2/4,5,5,4/6,3,3,8,8,7/5,4,4,5/3,2/6,,
{8}1>4[8:1]/8,,,{2}6>1[8:1],2qq7[4:3]/3pp6[4:3],,
{8},5h[4:1]/8,,{12}1,8,7,3,2,1,5,4,3,{8}8w4[8:1],,8,,2/6,{4}2b/6b,

{16},,5/7,,3,4,,4,2,,2,8,,8,1,,2/7h[16:3],,,5h[16:3],,,6,4,,{16}3/7-4[8:1],,,{8}4,3,2,
{8}1h[4:1]/5h[4:1],,,6,7,8,1,2/4,3,5-1[8:1]/7<4[8:1],,5/7,,7/8,1/6,,
2/4,{16}6,5,,5,7,,7,1,,1,8,,7/2h[16:3],,,{16}1,8,7,6,5,4,{16}2-5[8:1],,,{8}5,6,7,
{8}8h[4:1]/4h[4:1],,,{16}5,6,5,6,5,7,5,7,8p4[8:1],,,,1/8,,,2h[16:1],,,{8}3/8,6,5/6,,

{8}2/8,{16}6,5,,5,7,,7,1,,1,8,,2h[8:1]/7,,
{16}4,3h[16:3],,,5,4,,{16}5>2[8:1]/6,,,{8}8,7,6,1h[4:1]/5h[4:1],,,2/4,3,4,8,5/7,6,2-5[8:1]/4-8[8:1],,2/4,,1/2,3/8,,
{8}5/7,{16}3,4,,4,2,,2,8,,8,1,,3/7h[4:1],,,{16}5,4,3,1,8,7,{16}2-5[8:1],,,{8}5,6,7,
{4}8h[4:1]/4h[4:1],{16},,3/7,,2,4,3,5,4,6,{8}5qq1[2:1],,6,6,6,6,6,{4}7x/8x,


{8}1h[4:1]/5h[4:1],,,{16}2,3,{24}7,6,5,{8}1,1,2-5/4,,2/8,6^1[8:1],,5/6,3-7[8:1]*-8[8:1],,3,,1/6<4[1:1],{4}5h[4:3],,,{8},6,7,8,{16}1h[16:3]/5,,,3h[16:3],,,{8}5,2/6,,
7/8,6,{16}2,4,{8}3,4/5,3/6>3[8:1],,{16}2,,,7,,,2/3,,,6/7,,,{8}1/8,1>4[8:1]/8,,7,8<5[8:1],,3,2,1-5[8:1],,6,7,8,

{16}1/2,,,3-8[16:1]/7-4[16:1],,,{8}3/7,{4},5h[4:5]/A1,E7,A2,E6,A3,{16}4,,,2-5[16:1]/6-1[16:1],,,{8}2/6,{4},4h[4:5]/A8,E3,A7,E4,A6,{16}5,,,3-6[16:1]/7-2[16:1],,,{8}3/7,{4},1/5h[4:1],6,{8}3/4,2/5,,7/8,7/8,{16}1h[16:3]/6,,,3-5V71[8:13],,,{8}Cf,,,,2h[4:1],,,3h[4:1],,,4h[4:1],,,5h[4:1],,,
{16}2/6^3[16:3],,,3^8[16:3],,,8^5[16:3],,,5^2[16:3],,,2^7[16:3],,,7^4[16:3],,,{1}4w8[2:1],


{8},2b/6b,,,7/8,1/6,{24}2,3,4,{8}8,7V36-4[4:1],,4,3,2,1h[4:1],,,2/8,3,{16}7,5,{8}6,3/4,2,8,4/6,2v3^5[4:1],,A6,B6,B8,,E5,E2,A3,
8h[4:1],,,2,1/2,{24}8,7,6,{8}3,2/4h[4:1],,8v3[8:1],2<4[4:1],8,2,,1,2/8,,3/4,{16}5,4,,4,{8}6,3/7,2,1/8h[4:1],,6,5-8[8:1],4,3/5-2[8:1],,5/7<3[16:3],,

1bh[4:1],,,2/8,2/8,{24}7,6,5,{8}1,2q5[8:3],,4,5,6,7-4[8:1],,7/8,,1/5,{16}2,4,{8}3,5/6,7,1,3/5,7^2[8:1],,5,4,3^6[8:1],,1,8,7,4h[4:1]/6h[4:1],,,4/6,5,{24}1,2,3,{8}8,5-1[8:1]/7,,6,7-3[8:1]*-4[8:1],8,7,,1/2,3/8,,5/6,{16}4,5,,5,{8}3,2/6,7,1h[4:1]/8,,3,4-2<7-5[8:3],5,6,,,,3x/4x,,{12}1,5,5,2,6,6,3,7,7,{8}4w8[8:1],,4,,2/6,2b/6b,,


{24}7/8qq1[2:1],1,2,{4}3,,,{8},{24}3/4qq5[2:1],5,6,{4}7,,{8},7h[4:1],,8,
{8}1/6,,{16}2,3,4,5,8,7,6,5,{12}2,2,4,3,5,4,6,5,7,5,6,4,{4}3/5h[8:3],{8},2,3,4,5/6,7p5[4:1],8,1,,3,2,1-5[8:1],,1/7-4[8:1],,3-8[8:1]/7,,5,5p4[4:1],,{4}4/5,,{12}3,3,3,4,4,4,5,5,5,6,6,6,
{1}B8/B1/Cf,{4},3,{8}3,3,,,4,,4,4,,,5,,5,5,,,6,5,4,3/7,,1,1,2/8,,5/6,5/6,4/7,,2-8[8:1]/4,5,6-4[8:1],,2-6[8:1]/6,,2/8,,5/7,6,5,3,3,8,8,{16}2,1,2,1,3,8,4,7,5,6,4,5,3,4,


{8}C,{1},{2},{4}E6,E5,E4,{8},B7,E6,{24}E3,B3,B4,{8}E5,E8,,E7,B5,A4,1w5[8:1]b,,A1f,,

{16}3/7,,6,5,{8}6,3/4,2,8,4/6,2v3^5[4:1],,A6,B6,B8,,E5,E2,A3,
{8}8h[4:1],,,1/2,3/8,{24}7,6,5,{8}1,2h[4:1]/8,,1v6[8:1],7>5[4:1],1,7,,8,
7/1,,6/5,{16}4,5,,5,{8}3,6/2,7,8/1h[4:1],,3,4-1[8:1],5,6/4-7[8:1],,4/2>6[16:3],,

8bh[4:1],,,5/6,4/7,{24}2,3,4,{8}8,1/2V63-5[4:1],,5,6,7,8h[4:1],,,1/7,2/6,{16}3,4,{8}3,4/5,2/6,{16}7,8,{8}7,1/6,{16}1h[8:1]/6h[8:1],,,5h[8:1]/7h[8:1],,,4,3,1,8,7,6,4,3,2,1,
{4}7h[4:1],{24}5,6,5,6,5,6,{16}4h[16:3],,,3h[16:3],,,{8}2-5[8:1],,5,6,{24}7,,1,{24}8h[24:3],,,{32}5,,7h[24:3],,,,,,{8}4/6,,3/5,{16}2,4,,4,3,6,{8}5,7/8,1h[4:1]/7,,3qq5[8:5],4,{4}5,,,

{16}4/6,,7,5,,5,6,3,{8}4,1/2,{1}3b/7bxpp4[4:2],{32}E2,C,E6,E

  • 追加しました。シアミラ(2026/04/27 01:50:19)

Re:MASTER


名前:
コメント:

タグ:

+ タグ編集
  • タグ:
最終更新:2026年04月27日 01:50