アットウィキロゴ

AiAe

アーティスト DJ'TEKINA//SOMETHING a.k.a ゆよゆっぺ

BPM BASIC ADVANCED EXPERT MASTER Re:MASTER
180 5 8 12 14 -

EXPERT MASTER Re:MASTER
譜面制作者 サファ太 サファ太 -

BASIC


ADVANCED


EXPERT


MASTER

(180){1},
{8},,,,,,
{16}1,8,1,8,
{8}1b,,2/4h[8:3],,,3,24,,45,,7/5h[8:3],,,6,75,,34,,2h[8:3],,,1,38,,47,
{16},6,5,,
{8}5/3h[8:2],,4,35,
{16}2,4,
{8}3b,4,5,6,73,4,5,6,75,6,5,4,37,6,5,4,A7,A6,A5,A4,D7,D6,D5,D4,2x-6[8:1],,1-5[8:1],,8-4[8:1],,7-3[8:1],,
{1}6b-8>1-3-6[8:14],,
{2},E7h[8:8],E3h[8:4],C,2bx/8bxV61[8:4],1-6-2[8:4],2-6-3[8:4],3-6-4[8:4],1bhx[8:2],2h[8:2]/4h[8:2],3bx/5bhx[8:2],
{16}4,,4,5,
{8}3b/6b,,2>5[8:2],,1,,8>3[8:2],,7,,6<1[8:2],,5,,4<7[8:2],,3,,2<7[8:2],,3,,4>1[8:2],,5,,6>3[8:2],,7,,8<5[8:2],,C,,1b,1,2,2,3,3,4,4,5,5,6,6,7,7,8,8,
{16}1,8,1,8,1,8,1,8,
{24}1b,2x,3x,7,6x,5x,1-7-3-5[8:6],2x,3x,7,6x,5x,
{8},,,,,,8h[16:1],8h[16:1],1b/7b,,
{16}25,,3,4,2,,1,,28,,7,5,6,,4,,53,,2,1,2,,7,8,7,,16,,25,,3,,74,,6,5,6,,4,,53,,2,1,2,,7,8,7,,6,4,7,5,7,5,6<1[8:1],4,7,,5b/6b,,,,2,,2,1,3,,48,,57,,6,4,5,,24,,15,,7,8,6,,15,,24,,3,5,4h[8:1],,6,5,7h[8:1],,2,1,3h[8:1],,7,8,6h[8:1],,5,,4-8[8:1]/7-4[8:1],,,,47,,,,1,2,3,4,7,6,5,4,2b-5[8:1],,,,28,,,7,7h[8:1],,6,,5h[8:1],,6,,7-4[8:1],,,,71,,,2,2h[8:1],,3,,4h[8:1],,3,,2-8[8:1],,,,25,,,6,6h[8:1],,8,,7-3[8:1]*-4[8:1],,,,7x,,,,1-5[8:1]*-6[8:1],,,,1x,,,,74,,,,6b,,4,,2,,2,1,3h[8:1],,8,,7-4[8:1],,56,,7b,,1,,3,,6,5,7h[8:1],,4,,83,,38,,2b,1,2,1,3,8,4,7,5b,6,5,6,4,5,3,4,1b,,,,7b/E4/B3/B4,,,,1b/E6/B5/B6,,,,1,8,1,8,
{8}2<7[8:1]/7<4[8:1],,2/7-1-3-5[8:3],,5x,,,,7-5[8:1],5v3[8:1],7,,1-7[8:1]*-6[8:1],2,1>2-6>5-3[8:4],,,,,,
{16}E1,E2,E3,E4,E5,E6,E7,E8,
{8}2V48[8:2],1,8p4[16:5]*q6[16:5],7,,,,,7>2[8:1]/2>5[8:1],,7/2-8-6-4[8:3],,4x,,,,2-4[8:1],4v6[8:1],2,,8-2[8:1]*-3[8:1],7,8<7-3<4-6[8:4],,,,,,
{16}1,8,7,6,5,4,3,2,
{8}8h[8:1],2h[8:1],4h[8:1],6h[8:1],8-4[8:1]*-6[8:1],,8,,2b-4[8:1]/5b-8[8:1],,2/5-3-1-7[8:3],,7x,,6V83[8:3],,5-2[8:1],,5x,,1-6[8:1]b/4-7[8:1],,4x/1x-3-8-4<6[8:4],,,,,,
{16}E1,E2,E3,E4,E5,E6,E7,E8,
{8}1-4[8:1],8h[8:1],1,6h[8:1],8-3[8:1],4h[8:1],8,,7b-5[8:1]/4b-1[8:1],,7/4-6-8-2[8:3],,2x,,3V16[8:3],,4-7[8:1],,4x,,8-3[8:1]b/5-2[8:1],,5x/8x,,1b,2,3,4,5/E1,6/E2,7/E3,8/E4,
{16}75,,6,4,
{8}5-7[8:1],5-3[8:1],5x-8-2[8:2]b,5x,,,3b,,3,,43,,43,,32,,13,,38,,3/7<4[8:2],,4>1[8:2],,1<6[8:2],,6,,4,,
{16}3-1[8:1],4,3,4,
{8}3v5[8:1],,8>2p6[8:2],7,,,5b,,5,,56,,65,,75,,85,,15,,5/2-8-6-4[8:6],,5,,4,,3,,2,,
{16}1,4,1,4,1bh[8:2],,,,7,8,
{32}D7,A6,D6,A5,
{16}2,1,
{32}D3,A3,D4,A4,
{1}8b,,
{2}7/8h[8:4],1h[8:4],2h[8:4],3V58[8:2],
{8}3bhx[8:6],,B1/B2,,,E3,E4,,6h[8:6],,B7/B8,,,E7,E6,,3bhx[8:2],,1h[8:4],,,E3,E4,,7bhx[8:2]/8bhx[8:2],,,,
{16}7,8,
{48}7,B6,B5,B4,E4,,
{8}1x,,8/3-8-5[8:4],,7,,6,,6,,4/7-4-1[8:4],,3,,2,,2,,1/2-5-2[8:4],,8,,7,,6,,2/5-1-5[8:4],,1,,2,,3,,46,4,53,5,42,2,51,5,64,4,75,7,84,4,73,7,
{16}1,8,1,8,1,8,1,8,
{24}1,2,3,4,5,6,2,3,4,5,6,7,
{8}8/Ch[8:4],,,,8v3[8:1],,1-5[8:1]b,,
{16}1b>4[8:1]/7,,8,8,1,,6,,5-1[8:1],,7-4[8:1],,5,,7,,2V84[8:2],,3,,4,,5,,6V41[8:2],,7,,4,,3,,2-5[8:1],,8,8,2,,1,,8-3[8:1],,7,,68,,5,,4-8[8:1]/2-8[8:1],,3,,4/2-6[8:1]*-5[8:1],,,,2,,,,74,,37,,2/8b<5[8:1],,1,1,8,,3,,4-8[8:1],,2-5[8:1],,4,,2,,7V15[8:2],,6,,5,,4,,3V58[8:2],,2,,5,,6,,7-4[8:1],,1,1,7,,8,,1-6[8:1],,2,,13,,4,,7,5,7,5,6,5,6,5,
{32}6,7,8,1,2,3,4,5,
{8}6/Cf,,
{16}8b/2b-8[8:1],,7,7,2-4[8:1],,4-6[8:1],,2,,1,,8-4[8:1],,7,,8-6[8:1]/4,,2,2,8-2-6-4[8:3],,3,,8,,4,,3,,2,,1b-7[8:1],,6,6,1-3[8:1],,3-5[8:1],,1,,8,,7-3[8:1],,6,,3/7-5[8:1],,1,1,7-1-5-3[8:3],,2,,7,,3,,2,,1,,2b>4[8:1],,8,8,2-6[8:1],,1-5[8:1],,2,,1,,4,,36,,2/7b<5[8:1],,1,1,7-3[8:1],,8-4[8:1],,7,,8,,7,,6,,
{8}5/3b-1[8:1]*-8[8:1],,3,,7b-5[8:1]*-4[8:1],,7,,2bx/4bx,,5bx/7bx,,63,27,
{16}1,8,1,8,1b,2,3,4,7,5,7,5,8,7,6,5,2,4,2,4,1,2,3,4,5/1,2,3,4,5/8,7,6,5,4/8,7,6,5,2,3,2,3,1,4,1,4,8,5,8,5,7,6,7,6,7,8,1,2,5,6,7,8,3,4,5,6,
{8}7/1-5[8:1]*-6[8:1],,1b,,
{16}7,8,7,8,6,1,5,2,4,3,4,3,5b,6,7,8,12,3,4,5,67,8,1,2,4,5,4,5,3b,4,2,5,1,6,8,7,5b,6,4,7,3,8,2,1,
{24}2b,3,4,8,7,6,1b,2,3,7,6,5,
{32}4/2b,3,4,5,6,7,8,1,2/6b,5,4bx,3,2bx,1,8bx,7,
{1}6bhx[8:16]/E4h[8:24]/E5h[8:20]/B4h[8:16],,
{2},E7,E1,E2,
{8}3x/4x,,5/3-6-4[8:4],,6,,7,,8,,4/8-5-3[8:4],,3,,2,,1h[8:2],,A3h[8:2]/E4h[8:2],,8h[8:2],,A6h[8:2]/E6h[8:2],,1,,1,,
{16}1/6,8,7,6,5/E6,4/E7,3/E8,2/E1,
{1},
E

Re:MASTER


  • 8p4[8:2]q6[8:2],→8p4[16:5]q6[16:5],の箇所の修正を行いました。 -- けもがみ (2026-03-22 04:39:40)
名前:
コメント:

タグ:

+ タグ編集
  • タグ:
最終更新:2026年03月22日 04:39