アットウィキロゴ

Aides

アーティスト tokiwa×むト

BPM BASIC ADVANCED EXPERT MASTER Re:MASTER
200 4 7+ 10+ 13+ -

EXPERT MASTER Re:MASTER
譜面制作者 サファ太 Luxizhel -

BASIC


ADVANCED


EXPERT


MASTER

(200){4},,,,,,,,{2}6h[2:3],
{32}B6,E6,{4},,,{16},,,{32}B5,
E5,,,,,,,,,,,,,,,{2}3h[2:3],
{32}B3,E4,{4},,,{16},,,{32}B4,
E5,,,,,,,,,,,,,,,{8}3,
4,6,5,{4}4,{8}6/2,2b/6b,
,,,,,,,,{1}3q5[1:1],
{8},,,,6,5,{4}4/7-2[8:1],
7b/3b-6[8:1],1-6[8:1],5h[4:1],{8}7,7h[4:1],
,8,{4}8,6/5,4/3,
{8}6,5,7/4,6,3,4,3/5,2<7[4:1],
,7-3[4:1],,3<6[4:1],,1,{4}1,
1b-5[8:1],3>8[8:1],6-4[8:1],{8}1,1h[4:1],
,4,2,3/5,6,7,{4}8/4,
{8}7-5[8:1],7,3-1[8:1],3,8-4[8:1],8,{4}2h[4:1],
{16}3,2,1,8,7,6,5,4,{2}Ch[4:1],
8/1>4[8:5],{8}B3,,,6h[8:3],
,,{4}5,{2}E7/E6,
6>3[8:5],{8}E5,,,2h[8:3],
,,{4}4,{2}E3/E4,
2>6[8:5],{8}B4,,,7h[8:3],
,,{4}5,{8}E7/E6,,,7,
7,5,5,4,4,3<8[8:3],,Cf,
,,{4}1,2/7,3-5[8:1],
8h[2:1],6,{8}5,7,{4}6/4,
2h[2:1],3,{8}4,3,{4}5/2,
{8}1,1-7[8:1],,4-6[8:1],,8h[4:1],,7,
,6/5,,3/4,{4}3/4,5/7,
8h[2:1],6,{8}5,7,{4}6/4,
1h[2:1],3,{8}4,2,{4}3/5,
6h[8:1]/5h[8:1],7h[8:1]/5h[8:1],4h[8:1]/3h[8:1],4h[8:1]/2h[8:1],
{16}1,2,3,4,5,6,7,8,{4}1/5,2-5[8:1]/7-4[8:1],
7b/2b<6[4:1],6>2[4:1],2,{8}1,1-5[8:1]*-6[8:1],
,1,,7-3[8:1]/8-4[8:1],,8/7,,2,
2/4,3,7/5,6,4/2,3qq5[8:3],,4bh[8:3],
,,,,{4}6/3,{8}5v8[8:1],5,
3-1[8:1],3,7-3[8:1],7,8,8>6[4:1],,E4f/E3,
,,{4}1,{8}8/5,7,6/4,3,
{4}2/4<7[8:1],2<7[8:1],3-7[8:1],{8}8,8-5[8:1]*-3[8:1],
,8,,6/2,{4}2b/6b,2V46[4:1],
6V82[4:1],8,6,{8}3,3V15[4:1],
,4-8[8:1],,,,6/7,,8,
8<5[8:1],5>2[8:1],{4}8,{8}1,1w5[8:1],,1b,
,,{4}3/7,{16}5/1,2,3,4,6,7,8,1,
{4}2-7[8:1]/6-3[8:1],2x/6x,4-1[8:1]/8-5[8:1],8x/4x>5[4:3],
,,,4x,
{1}Cfh[2:3]/B2h[2:3]/B6h[2:3],
{4},,,,8-3-1v4[4:5],
8,{8}4,,,5h[8:5],
,,,,,,,,{4}6/4-7-5v8[4:5],
4,{8}8,,,1h[8:5],
,,,,,,{4}2/7,
{8}3/1,3h[8:1]/1h[8:1],,6/4,{4}6h[8:1]/4h[8:1],{16}7,8,{8}7,
6/1,1h[8:1]/6h[8:1],,3/8,{4}8h[8:1]/3h[8:1],{16}7,5,7,5,
{4}6>3[8:1],{8}6,2q6[8:1],,2,{4}8q1[8:3],
{8}5,4,3,2,,3/8,{4}3/8,
2>5[8:1]/1<6[8:1],1/2v5[8:1],{8}7,8,{4}1,
{8}4>2[8:1],2<8[8:1],8<6[8:1],6,,5,{4}5,
7<4[8:1]/8>3[8:1],8/7v4[8:1],{8}2,1,{4}8,
{8}5-7[8:1],7-1[8:1],1-3[8:1],3,,4,{4}4,
4>1[4:1],1q5[4:1],5<8[4:1],8p4[4:1],
4>1[4:1],1,{8}8,8,{4}7/2,
{8}8h[4:1],{16}3,4x,{8}5x,1h[4:1],{16}5,4x,{8}3x,8h[4:1],{16}4,5x,
{8}6x,1h[4:1],{16}6,5x,4x,3x,2x,1x,8x,7x,{4}6x/5x,
{8}4h[4:1],{16}8,1x,{8}2x,5h[4:1],{16}2,1x,{8}8x,{4}4x/6x,
{8}3-8b[8:1],7-4b[8:1],3b,7b,,,,,{2}3<4q5<6[4:5],
C,
,C,
3<4q5<6[4:5],C,
,C,
2<1v8<7[4:5],E6,
,E5,
2<1v8<7[4:5],E6,
,E5,
{4}3,3qq6[1:1],4,4,
5,5,7,7,
8,8qq3[1:1],5,5,
4,4,2,2,
{8}1/8,7,6/1,2,3/7,6,{4}5/4,
{16}4,5,4,5,3,6,3,6,2,7,2,7,{4}1-5[8:1]/8-4[8:1],
8/1,7b/3b-7[8:1],8h[4:1],{8}6,6-1[8:1]*-2[8:1],
,6,,3-7[8:1]/4-8[8:1],,4/3,,6,
7/8,1,1/2,3,4/5,6pp5[8:3]/2pp1[8:3],,6/2,
,,,,4b/8b,6b/2b,,1,
{4}1v6[8:1],1/7-3[8:1],{8}7/5,5>7[4:1],,E4/E3f,
,,{4}4,{8}5/8,6,7/1,2,
{4}3/1v4[8:1],2-7[8:1],3,{8}4/8,4-7[8:1]/8-3[8:1],
,4/8,,6/2,{4}2b/6b,1<5[4:1],
5>1[4:1],1<5[4:1],5V38[8:3],{8}1,1,
,5h[4:1],,8,,1,1-4[8:1],4-1[8:1],
1-6[8:1],6<3[4:1],{4}5,{8}4,4w8[8:1],,4b,
,2/6,{4}2/6,{8}7/8,8p4[8:1]/7<4[8:1],,8/7q3[8:1],
,1,{4}1,{8}2/4,4/2,4/5,4/5,
5/7,5/7,4/8,4/8,{16}3b,7,2,6,1,5,8,4,
{1}Cf/B6/B2,
{4}6/5,8/1,4/3,{8}3,3,
{4}2/1-6[8:1],3-7[8:1],5<3[8:3],{8}8,8,
,5h[2:1],,3,,4,{4}4-7[8:1],
2-5[8:1],1,{8}1/4,8/3,7/2,6h[8:3]/1V35[8:1],
,,,,5/7,7/5,4pp4[4:1]*qq4[4:1],4,
,,,,3/4,5/2,1/6,7-4[8:1]/8-4[8:1],
,8/7,,5/3,{4}3/5,{16}2,4,2,4,
{4}3-7[8:1],5q8[2:1],{8}8,1,2,3h[4:1],
,1,{4}1-4[8:1]*-6[8:1],1,3/7,
{8}8h[8:1],7h[8:1],6h[8:1],5h[8:1],4h[8:1],3h[8:1],2h[8:1],1v6[4:1],
,6>8[4:1],,7h[8:3],,,,,{4}6/7,
3/2,{8}1,2,3,5,
6,7,4,3,2/1,3/8,{4}4/7,
{8}2x/5x,{16}3,4,{8}3,4x/7x,{16}6,5,{8}6,8x/3x,{16}2,1,
{8}2,6x/1x,{16}7,8,{8}7,6/1,3/8,2/5,4/7h[8:5],
{24},,,,,,,,,3,4,5,{2}6b,
E

Re:MASTER


名前:
コメント:

タグ:

+ タグ編集
  • タグ:
最終更新:2026年04月12日 09:05