BASIC
ADVANCED
EXPERT
MASTER
(200)
{1},
{8}6,5,4,3,6,45,,3,
{8}3,3,3,2-5[8:1],,2b,,6,
{8}5,4,3,5,4,35,,6,
{8}6,6,6,7-4[8:1],,7b,,3,
{8}4,5,6,4,5,46,,3,
{8}3,2,2,1-5[8:1],,1b,,6,
{8}5,4,3,5,4,35,,6,
{8}6,7,7,8-4[8:1],,8b,,7,
{8}6,6,6,6,6,57,,3,
{8}2,1,8,7-4[8:1]/8-4[8:1],,7b/8b,,2,
{8}3,3,3,3,3,24,,6,
{8}7,8,1,1-5[8:1]/2-5[8:1],,1b/2b,,7,
{8}6,6,6,6,6,57,,3,
{8}2,1,8,7-4[8:1]/8-4[8:1],,7b/8b,,3h[4:3]/6h[4:3],
{2},{4},{8},5-8[8:1],
{8},4-1[8:1],,7,,2b/6b,,17,
{4}1-3[8:1]/7,8,{8}7-5[8:1],7,{4}8,
{4}2-4[8:1],1,{8}8-6[8:1],8,{4}1,
{4}3-1[8:1],4,{8}6-8[8:1],6,{4}5,
{4}4-2[8:1],5,{8}6-8[8:1],6,{4}5,
{4}2-5[8:1],1,{8}7-4[8:1],7,{4}8,
{4}3-8[8:1],4,{8}6-1[8:1],6,{4}5,
{4}2,34,{8}57,5/7-1[8:1],,3-5[8:1]/7,
{8},3/6-2[8:1],,1w5[8:1]/6,,1b,{4},
{4}2h[4:1]/8,6h[2:1],5,4h[4:1],
{4}7h[8:5],{8}5,5,,3>6[2:1],,5,
{4}5,{8}4,4,,5^8[4:1],,1,
{8},1-5[4:1],,8,,8^5[4:1],,4h[4:3],
{4},{8},5,,5-8[4:1],,8-3[4:1],
{8},3-6[4:1],,6-1[4:1],,1<3[8:5],,3,
{2},{4}2h[4:1],{8}1,1h[4:1],
{8},8,8,8,,27,27,2b/7b,
{4}3h[1:1],4,{8},5,{4}5,
{4}6h[1:1],4,{8},5,{4}5,
{4}4h[1:1],5,{8},3,{4}3,
{4}6h[2:1],5,{8},45,{4}45,
{4}3h[1:1],B3,{8},5,{4}5,
{4}6h[1:1],B6,{8},4,{4}4,
{4}3h[1:1],E3,{8},5,{4}5,
{4}6h[2:1],E7,{8},45,{4}45,
{4}3h[2:1],B4/E4,6h[2:1],B5/E6,
{4}3h[2:1],B4/E5,6,{8}17,1/7b,
{8},3b/4,,2/8b,,5/6b,{12}7,8,,
{12}8,7,,2,1,,1,2,,{4}3b/7b,
(220)
{4}1/8p3[4:1],1,1,
{4}13,{12}1,,4,{4}1,
{4}1/3pp4[3:1],1,1,
{4}1,13,{12}1,,4,
{4}1,1,35,
{4}46,3h[4:1]/7h[4:1],{12},,2b/8b,
{12},,6,{4}5,57,
{4}67,68,{12}7,7,5,
{8}8h[8:3],,,7h[8:3],,,
{4}6,56,67,
{4}5h[2:1]/8h[2:1],,{12},,7,
{12}5,,56,,,57,,,5,
{4}8,8,78,
{4}8,6h[4:1]/8h[4:1],{12},,7,
{12}7,,8,8,,5,5,,6,
{4}6,{12}7,8,7,5,6,5,
{4}8,1q6[4:1]/8,8,
{12}8,,6,{4}8,8,
{4}7-5^4v6[3:1]/8,8,8,
{4}8,78,{12}8,,5,
{4}8,8,68,
{4}48,2h[6:1]/8h[6:1],{12},,3b/7b,
{12},,3,4,,3,2,,3,
{12}1,,3,{4}8,17,
{12}6,,2,6,,5,6,,8,
{12}6,,5,6,,1,{4}6,
{4}37,{12}6,5,6,3,4,3,
{4}5,34,12,
{4}78,56,18,
{4}3-6[4:1]/6,,,
{12}47,,6,5,,6,5,,7,
{4}47,{12}25,,3,4,,3,
{12}4,,2,{4}25,{12}48,,7,
{12}5,,7,5,,8,{4}48,
(200)
{8}2h[8:3]/6h[8:3],,,,17,17,
{8},4h[4:1]/6h[4:1],,,{8}37,37,
{8},18,,3h[4:1]/5h[4:1],,,26,26,
{1}1z5[8:29]/Cf,
{1},
{1},
{2},{8},4,,4h[4:3],
{2},{8},5-1[8:1],{4},
{8},,,8,8,18,,2h[4:1]/6h[4:1],
{8},,17,17,17,,46,46,
{8},37,37,2-6[8:1]/8,,1,{4}1<2[2:1],
{2}Cf,{8}1,1-5[8:1],,6,
{8},7/8-4[8:1],1,2,,1<2[2:1]/3,8,7,
{4},{8},8,7-4[8:1],,1,2-6[8:1],
{8},8-3[8:1],,5-2[8:1],,1^8V64-2[2:1],,1b/7h[8:7],
{2},{4},{8}1,1,
{8},2^5[8:1]/6^1[8:1],,26,,3^8[8:1]/7^4[8:1],,3b/7b,
{8},{16}1,2,3,4,{8}5,{16}1,2,3,4,{8}5,{16}1,2,
{8}3,{16}7,6,{8}5,{16}2,3,{8}4,18,{4}2b/7b,
{8}16,16,16,16,{4}25,{8},48,
{8}48,48,48,37,,2-8[8:1]/6-4[8:1],,2b/6b,
{8},15,15,15,{4}26,{8},37,
{8}37,37,37,48,,3-5[8:1]/7-1[8:1],,3b/7b,
{8},48,48,48,{4}37,{8},26,
{8}26,26,26,35,,2-8[8:1]/6-4[8:1],,2b/6b,
{8},26,{4}26,{8}48,48,,1/7-3[8:1],
{8},3^6[8:1]/7^2[8:1],,37,,4b/8b,{4},
{16}2,1,2,1,{8}2,{16}7,8,7,8,{8}7,{16}2<6[4:1],1,{8}2,
{4}6>2[4:1],2,1-4[8:1]*-6[8:1],1b,
{16}7,3,7,3,{8}7,{16}1,5,1,5,{8}1,{16}7V13[4:1],4,{8}7,
{4}3<7[4:1],7,4-1[8:1]*-7[8:1],4b,
{16}2,6,2,6,{8}2,{16}8,4,8,4,{8}8,{16}2V86[4:1],5,{8}2,
{4}6>2[4:1],2,{16}8,7,6,5,{4}1b/4,
{16}2,3,2,3,2,3,{8}2,14,14,,{16}7,6,
{16}7,6,7,6,7,6,{8}7,,2b/8b,{4},
{16}7,6,5,4,2,3,4,5,1h[16:3],,,2,{8}1,{16},4b/7b,
{8},{16},6,5,4,{8}3,{16}18,,,18,,,{32}2b/7b,3x/6x,4x/5x,,
{16},,,,,{32}6b/8b,1x/5x,2x/4x,,{16},,,,,{32}1b/3b,4x/8x,5x/7x,,{16},,
{16},,,{32}1b/8b,2x/7x,3x/6x,4x/5x,{16},,,{2}2b<5[2:3]/7b>4[2:3],
{1},
{2},{16}6,5,4,3,4,5,{8}6,
E
Re:MASTER
最終更新:2026年06月21日 12:53