アットウィキロゴ

ソテリア

アーティスト Rafutsuri feat.桜あおい

BPM BASIC ADVANCED EXPERT MASTER Re:MASTER
160 4 8 12 14 -

EXPERT MASTER Re:MASTER
譜面制作者 シチミヘルツ サファ太 -

BASIC


ADVANCED


EXPERT

(160)
{1},
{1},

{1}7-4[4:3],
{1}2-5[4:3],
{1}6-1[4:3],
{4}2,3,4,5,
{1}6-1[4:3],
{1}3-8[4:3],
{1}7-4[4:3],
{4}3,26,{2}26,

{4}1b/7h[2:1],{8}8,8,{4}1h[2:1],{8}8,8,
{4}7h[8:3],{8}8,8,{4}16,37,
{4}2h[2:1]/8,{8}1,1,{4}8h[2:1],{8}1,1,
{4}2h[8:3],{8}1,1,{4}38,46,
{4}3/7h[2:1],{8}5,4,{4}3h[2:1],{8}5,6,
{4}7h[4:1],{8}5,4,{4}35,35,
{4}2h[2:1]/6,{8}4,5,{4}6h[2:1],{8}4,3,
{4}2h[4:1],{8}4,5,{4}4b/6b,1b/8b,

{2}3b^6[4:3]/5b,E5,
{2}7^2[4:3],E1,
{2}3^6[4:3],E5,
{2}7^2[4:3],E1,
{4}3,3h[8:1]/4h[8:1],4h[8:1]/5h[8:1],5h[8:1]/6h[8:1],
{4}4h[8:1]/7h[8:1],5h[8:1]/6h[8:1],4h[8:1]/5h[8:1],3h[8:1]/4h[8:1],
{8}2,2,7,7,{16}1,8,1,8,{4}1-5[8:1],
{2}7b,{4},36,

{4}2-5[8:1]/8,{8}1-6[8:1],1,{4}4-1[8:1],5,
{2}7-4[8:1]/8-4[8:1],{8}2,2,8,8,
{4}1/7-4[8:1],{8}8-3[8:1],8,{4}5-8[8:1],4,
{2}1-5[8:1]/2-5[8:1],7-4[8:1]/8-4[8:1],
{4}2b/6b,{8},7,{16}7h[16:3],,,6h[16:3],,,{8}5,
{4}5,{8}47,3,{16}2h[16:3],,,3h[16:3],,,{8}4,
{4}4,25,{2}8w4[8:1],
{2}1w5[8:1],{4}37,4h[4:1]/5h[4:1],

{4},2b/7b,{8}1-4[8:1],1,{4}8,
{2}5-1[8:1]/6-1[8:1],3-8[8:1]/4-8[8:1],
{4}4/6-1[8:1],{8}5-2[8:1],5,{4}8-5[8:1],1,
{2}3-8[8:1]/4-8[8:1],5-1[8:1]/6-1[8:1],
{4}3b/7b,{8},2,{16}2h[16:3],,,3h[16:3],,,{8}4,
{4}4,{8}25,6,{16}7h[16:3],,,6h[16:3],,,{8}5,
{4}5,{8}4,35,{4}3h[4:1]/5h[4:1],{8},17,
{1}1-5[2:1]/7-3[2:1],

{4}2b/6b,{16}3,4,{8}3,{16}6,5,{8}6,{16}2,4,{8}2,
{4}35,{16}6,5,{8}6,{16}3,4,{8}3,{16}7,5,{8}7,
{4}46,{16}3,4,{8}3,{16}6,5,{8}6,{16}2,4,{8}2,
{16}7,5,{8}7,{16}3,4,{8}3,{16}6,5,{8}6,{4}4b/7b,
{4}56,{16}2,4,{8}2,{16}7,5,{8}7,{16}3,4,{8}3,
{4}25,{16}7,5,{8}7,{16}2,4,{8}2,{16}6,5,{8}6,
{4}47,{16}2,4,{8}2,{16}7,5,{8}7,{16}4,5,4,5,
{1}4q5[8:5],

{2}6h[1:1],B6,
{2}5h[1:1],B5,
{2}4h[1:1],B4,
{2}3h[1:1],{8}4x,5x,{4}5x,
{2}6h[1:1],B6,
{2}5h[2:3],B5,
{2}4h[2:1],{4},{8}45,45,
{4},{8},3b/7b,,1b/5b,{4},

{16}2h[16:3]/5,,,4,{8}3,3,{16}4/7h[16:3],,,5,{8}6,6,
{16}2h[16:3]/5,,,4,{8}3,3,24,24,{4}15,
{16}4/7h[16:3],,,5,{8}6,6,{16}2h[16:3]/5,,,4,{8}3,3,
{16}4/7h[16:3],,,5,{8}6,6,57,57,{4}46,
{16}3h[16:3]/8,,,1,{8}2,2,{16}1/6h[16:3],,,8,{8}7,7,
{16}3h[16:3]/8,,,1,{8}2,2,13,13,{4}48,
{8}1bx/B6,,,8bx/B3,,,1bx/B5,,
{8},8bx/B4f,,,{4}18,2b/7b,

{2}3^6[4:3],E5,
{2}7^2[4:3],E1,
{2}3^6[4:3],E5,
{2}7^2[4:3],E1,
{4}3,3h[8:1]/4h[8:1],4h[8:1]/5h[8:1],5h[8:1]/6h[8:1],
{4}4h[8:1]/7h[8:1],5h[8:1]/6h[8:1],4h[8:1]/5h[8:1],3h[8:1]/4h[8:1],
{8}2,2,7,7,{16}1,8,1,8,{4}1-5[8:1],
{2}7b,{4},36,
{1}3h[2:3]/6h[2:3],
{2},{4},E4/E6,

{4}45,1b/8b,{8}2-7[8:1],2,6-3[8:1],6,
{4}8-4[8:1],7,{2}1-5[8:1]/2-5[8:1],
{4}38,{8}7-2[8:1],7,3-6[8:1],3,{4}1-5[8:1],
{4}2,{8}6,6,{2}7<2[4:1]/8p1[4:1],
{4},{8},1,{16}8h[16:3],,,6h[16:3],,,{8}5,
{2}5-2[8:1]*-8[8:1],{16}1h[16:3],,,3h[16:3],,,{8}4,
{2}4-1[8:1]*-7[8:1],2-5[8:1]/8-5[8:1],
{2}1-4[8:1]/7-4[8:1],{8}28,37,{4}4/6h[4:1],

{4}5,2b/8b,{8}1-6[8:1],1,5-2[8:1],5,
{4}8-4[8:1],7,{2}2-5[8:1]/6-1[8:1],
{4}37,{8}8-3[8:1],8,4-7[8:1],4,{4}1-5[8:1],
{4}2,2p3[4:1]/8<3[4:1],{2},
{4}1b/2b,{8},1,{16}8h[16:3],,,6h[16:3],,,{8}5,
{2}5v2[8:1]*v8[8:1],{16}1h[16:3],,,3h[16:3],,,{8}4,
{2}4v1[8:1]*v7[8:1],2-5[8:1]/6-1[8:1],
{2}4/8h[2:1],{16}1,2,3,4,5,6,7,8,

{1}1b>8[2:7],
{1},
{1},
{2},{4},2-6[8:1],
{1},
E

MASTER

(160)
{32},,,
{16}E7,E8,E1,E2,
{32}E3,,,E4,,,E5,,,E6,,,
E7,{24},{8}E8/D8,E1/D1,E2/D2,{16}E3/D3,,,E4/D4,,,{24}E5/D5,,,,,{4}36,
{8}2b-7[8:2]/7b,,,5,5h[8:2],,8>3[8:2],,,7,7<4[8:2],,3,,2,,2/4-1[8:2],,,3,3h[8:2],,1<6[8:2],,,2,2>5[8:2],,
{16}6,,,8,,,7,,
{8}7bhx[8:6],,,E6,E5,,Ch[8:3],,,1,1p4[8:2],,2,,,,4/3h[8:6],,,E3,E4,,8h[8:2],,
{32}1x,2x,3x,,
{16}7,5,6,,3,4,2bx,,8,1,8bx,1,7bx,1,
7b>2[8:1],,,4,,,4,,3/2<7[8:1],,,3,,,3,,2/7<4[8:1],,,2,,,2,,
{8}1h[8:1],3,4h[8:1],3,
{16}2<7[8:1],,,6,,,6,,5/7>2[8:1],,,5,,,5,,34,,3,4,,4,3,,24,,35,,46,,,,6b>3[8:1],,,1,,,1,,2/3<6[8:1],,,2,,,2,,3/6<1[8:1],,,3,,,3,,
{8}2h[8:1],1,7h[8:1],8,
{16}2>5[8:1],,,7,,,7,,8/5>2[8:1],,,8,,,8,,1/2x,,2,1,,1,2,,3-8[8:1]/8-6[8:1],,,,38,,,,
{8}1b/7h[8:4],,,6,6<4[8:4],,E6,E5,,,5x,,3/5-2[8:2],,C,,1h[8:3],,,3,3q7[8:2],,2,2>5[8:2],,,,7,7h[8:2],,
{16}5,,5,6,
{8}4b>1[8:2],,1<6[8:2],,6>3[8:2],,3>8[8:2],,8<4[8:2],,4>8[8:2],,8<4[8:2],,4,,8,8,8,8,
{16}8,7,6,5,1,2,3,4,
{8}5/Cf,,,,
{16}1-5[8:1],8,2,7,1b>4[8:1]b,,,,18,,,,6-1[8:1],5,7x,,1/6x-4[8:1],,,,6/2-6[8:1],,3x,,2/7x>2[8:1],,,,7x-3[8:1]/4-1[8:1],,3x,,4/7x,,,,2x/4-8[8:1],,5x,,6/4x,,,,7-4[8:1],8,6x,,4x/7-1[8:1],,,,7/3-7[8:1],,2x,,3/6>3[8:1],,,,1-5[8:1]/6-2[8:1],,2,,1<6[8:1]/6,,,,3/1w5[8:1],,,,1b,,,,37,,1,,2/4-7-1[16:5]b,,3,3h[16:5],,,,,,,,,28,,4,,7/5>3-8[16:5],,6,6h[16:5],,,,,,,,,8/1-5[8:1],,2,,13,,,,1-5[8:1]/7,,2,,1b/3b,,,,4x/6hx[8:2],,,,7,8,1,2,34,5,6,7,
{8}8q4[8:1]/1v3[8:1],,1b/8b<5[8:1],,8/2x-8[8:1],,2/6x-1[8:1],7,6/3<6[8:1],,3-7[8:1]/8-5[8:1],7,38,,6/8-4[8:1],1,28,,
{16}3-8[8:1],4,
{8}2,3-5[8:1]/5,,3/7-3[8:1],6,7/2<7[8:1],,2-6[8:1]/5-8[8:1],,2/5>2[8:1],,7/5w1[8:1],,5b,,37,5,
{16}4/2-7-5[16:5]b,,3,3h[16:5],,,,,,,,,24,,1,,5/7>2-5[16:5],,6,6h[16:5],,,,,,,,,7-4[8:1],,8,,7/1-6[8:1],,,,12,,3,,E4/E5/B4f,,,,,,,,
{24}7,6,5,1,2,3,
{16}6-3[8:1],5,7,,1b,,,,2,4,2,4,1,4,1,4,2-6[8:1]b,4,3,4,2b,,,,7,5,7,5,8,5,8,5,7-3[8:1]b,5,6,5,7b,,,,2,4,2,4,1,4,1,4,8v3[8:1]b,4,7,4,8b,,,,42,,5,5h[8:1],,2,6,4,8b,,E6/B5/E4/B4,,2b/7b,,,,2,1,2,1,2,3,2,1,2>5[8:1]b,3,2,1,2b,,,,7,8,7,8,7,6,7,8,7<4[8:1]b,6,7,8,7b,,,,2,8,3,7,4,5,3,6,8,7,1,6,4h[8:3],,,,,,5,5,5,,,6,,,4,,
{8}2b/8b,,7-4>3-8[8:10],1,8,,E8,,,,,,E4h[8:4],,,,1,,2-5<6-1[8:10],8,1,,E2,,,,,,E6hf[8:4],,,,1bx,,2-5[8:2],8,1<6[8:2],,,,5h[8:2],,4>6[8:4],,B5h[8:4],,,,,,7<4[8:2]b,1,8,,3,B4hf[8:4],,,,1b,,2b/8b,2hx[8:2]/8x-4[8:1],,
{16}8,,,3,3>8[8:1],,4,,35,,,7,7<4[8:1],,8,,71,,,2,2-7[8:1],,4,,2/5-3[8:1],,6,,5-8[8:1],,,,5/1bx,,,2,2>5[8:1],,1,,2/7h[8:2],,,8,8-4[8:1],,17,,8>3[8:1]*<5[8:1],,,,8v2-4[8:3]*v6-4[8:3],,,,,,,,,,,,6/2v5[8:1],,,1,2,,6,,7v4[8:1],,,8,7,,3,,2-4[8:1]b,,,1,2<7[8:1],,6,,5-2[8:1]*-8[8:1],,,,,,,,3b/7b,,,,56,,4b/8b,,,,34,,5b/1b,,,,12,,8b/4bV28V61[8:4],,,,5,,5,,4,,4w8[8:1]b,,,,
{8}A4f/D4/D5,,,7,7h[8:3],,E8,E7h[8:4],,,,8,8<4[8:2],,1,,2h[8:3],,,E2,E3h[8:2],,1,1-5[8:2],,E8,E7h[8:2],,E6h[8:2],,E5h[8:2],,E7f/B6/B7,,8>3-7<4[8:6],,2,,4,,2,,8-2-4-6[8:4],,4b,,,,7,7,7,7,
{16}7,8,7,8,7>5[8:4]b,6,7,5,
{8},,,,8h[16:1],8h[16:1],7b/1-7-3-5s1[8:9],,
{1}6h[8:12],
{8},,,,8<5[8:1],1,8>3[8:1]/2b,,4w8[8:1]b,,4b,,
{16}2x-8[8:1],4,
{8}3,2/6-2[8:1],7,6/3<6[8:1],,3-7[8:1]/8-5[8:1],7,38,,6/8<5[8:1],1,28,,
{16}3-8[8:1],4,2,4,
{8}3-5[8:1],6,3/7-3[8:1],8,7/2b<7[8:1],,2-6[8:1]/5b-8[8:1],6,2/5b>2[8:1],,7/5bv8[8:1]*v2[8:1],,5b,,73,5,
{16}8/6-3-1[16:5]b,,7,7h[16:5],,,,,,,,,26,,4,,3/1<7-4[16:5]b,,2,2h[16:5],,,,,,,,,3/5-1[8:1],,6,,57,,,,4/5-1[8:1],,6,,7b/5b,,,,3x/8x,,,,2,1,2,1,
{32}2,3,4,5,6,7,8,1,
{8}2>5[8:1]b/3-8[8:1]b,,2b/3b,,
{16}7-1[8:1],5,
{8}6,7/3-7[8:1],4,3/6>3[8:1],,6-2[8:1]/1-4[8:1],2,16,,1>4[8:1]/3,8,17,,
{16}6-1[8:1],5,7,5,
{8}6-4[8:1],3,6/2-7[8:1],1,2b-4[8:1]/8-4[8:1],,2-6[8:1]/8b-6[8:1],,2/8b>3[8:1],,8/4bw8[8:1]b,5,4b,,62,4,
{16}5/7-1v4[16:5]b,,6,6h[16:5],,,,,,,,,53,,6,,4/1<6v3[16:5]b,,2,2h[16:5],,,,,,,,,2-5[8:1],1,
{8}3,2/8>7[8:2],6,
{32}E1,E2,E3,E4,E5,E6,E7,E8,
{8}E1/E2/A1f,,,,
{24}2,1,2,
{16}8,4,6-2[8:1]b,2,4b,,
{1}B8f/6b-8-2-4-6[8:14],,Ch[8:4],
{8}B5/E6/E2h[8:6]/E3h[8:4],,,,6,,7z3[8:2],,
{1},
E

Re:MASTER


  • MASTER譜面のノーツの配置ミス、SLIDEの速度の修正を行いました。 -- けもがみ (2026-03-21 13:29:17)
  • 開幕のタッチノーツの微修正を行いました。 -- けもがみ (2026-04-07 06:29:24)
名前:
コメント:

タグ:

+ タグ編集
  • タグ:
最終更新:2026年06月21日 17:35