アットウィキロゴ

Galaxy Blaster

アーティスト ああああ

BPM BASIC ADVANCED EXPERT MASTER Re:MASTER
208 5 7+ 11 14 -

EXPERT MASTER Re:MASTER
譜面制作者 Luxizhel サファ太 -

BASIC


ADVANCED


EXPERT


MASTER

(208){1},
{2},3h[2:1],
{2}4h[2:1],5h[2:1],
{1}6q1[4:5],
{2}C1,E4,
{4}E2,E1,E8,E7,
{4}E6,E5,E4,C1/E3,
{8}1h[8:3],,,8,8pp3[8:9],,,,
{1},
{2},4h[2:1],
{2}3h[2:1],2h[2:1],
{1}1p6[4:5],
{2}C1,E3,
{4}E1,E8,E7,E6,
{2}C1h[2:1]/E5,B2/B7,
{1}1bxs5-3-7>8[4:13]b/8bxz4-6-2<1[4:13],
{1},,,
{8}2,3,4h[4:1],,6,6h[4:1],,5,
{8}5h[4:1],,7,7h[4:1],,E6,E5,,
{8}7,8,1h[4:1],,7,7h[4:1],,8,
{16}1bx/8bx,,,5bx/7bx,,,2bx/4bx,,,7bx/8bx,,,1bx/2bx,,,,
{16}3h[8:1],,,3h[8:1],,,4/2-5[8:1],,,,5,,6h[8:1],,,6h[8:1],
{8},5/7-4b[8:1],,3,2<7b[8:1],,4,,
{16}6h[8:1],,,6h[8:1],,,5/7-4[8:1],,,,4,,3h[8:1],,,3h[8:1],
{8},4/2-6b[8:1],,6,7>2b[8:1],,5,,
{16}3h[8:1],,,3h[8:1],,,4/2-6b[8:1],,,,8,,7h[8:1],,,7h[8:1],
{8},6/8,1,2,3/4,5,4/6,7,
{16}5h[8:1]/8h[8:1],,,5h[8:1]/8h[8:1],,,6b/7b,,,,5/6,,3h[8:1]/4h[8:1],,,3h[8:1]/4h[8:1],
{8},5b/2bV86v4[8:5],,,,,,,
{8}7bx,,7,6x,5h[2:1]/7,,7,,
{8}6,,6,5,6,7,6,8,
{4}6/1-5-8[4:3],6,6,6,
{8}6,,6,,5/6,,4/6,3,
{8}2x/5,,2,3x,2/4h[2:1],,2,,
{8}2,,2,4,2,3,2,1,
{4}2/8-4-1-5[4:3],2,2,2,
{8}2,,2,,2,1,2,3,
{8}2bx/4,,2,E4,E5/2,,2,,
{8}2/4x,,2,E4,E5/2,,2/4,,
{8}2/4-8[4:1],,2,,2,1,2,3,
{8}2/1p4[4:1],,2,,2,3,2/4,5,
{8}4/6bx,,6,5x,5/6,,6,8,
{8}7/8>5[2:1],,6,6,6,6,6,6,
{8}7b,7b-2[8:1]*-4[8:1],,A7f,,,3b/5b,3b/5b,
{16},,1b/7bh[4:1],,,,2,8,2,8,2,8,2,8,2,8,
{16}2>5[8:1],,,,1,,1x,8x,7x-3[8:1],,,,8,,,,
{8}2/4-6[8:1],,3,2,1,8,7,6,
{16}3/5-1[8:1],,,,2,,2x,3x,4x-8[8:1],,,,4-6[8:1],,,,
{8}4>1[8:1],,4,,7/8,6,1,2,
{16}3/7>2[8:1],,,,5,,5x,4x,3x-7[8:1],,,,5h[4:1],,,,
{8}8-2[8:1],,7,6,5,4,3/5,2,
{16}4/1-5[8:1],,,,6,,6x,7x,8x-4[8:1],,,,8-2[8:1],,,,
{8}8<5[8:1],,8,,3/4,2,8,7,
{4}6b/4b>1[4:1],1<6[4:1],6,4v7[4:1],
{4}7>2[4:1],2v5[4:1],3,4p6[4:1],
{4}6,7xp1[4:1],5,4x,
{16}2,1,2,,7,8,7,,3,4,3,,6,5,6,,
{4}4/7-5[8:1],7/3-1[8:1],3/7-3[8:1],7/8,
{4}1-7[8:1],1/2-4[8:1],2/5-1[8:1],3x/5,
{8}2,2,8,8,6,6,4,4,
{8}3/5,2-5[8:1]/6-1[8:1],,2b/6b,,4/8,3-8[8:1]/7-4[8:1],,
{1}3bV57V13[4:11]b/7bV13V57[4:11],
{1},,,
{2}7<4[4:3],B5/B6,
{4}3>8[4:3],E5,E6,,
{4}7-4-7[4:5],,8,8-3[2:1],
{1},
{1}5h[4:3]/6h[8:7],
{4}B4h[4:3],B5h[2:1],B6h[4:1],B7,
{4}3h[4:3]/8,,1,2<6[8:5]*p5[8:5],
{1},
{8}5h[4:1],,,4/6,4h[1:1]/6h[2:1],,,,
{2},5h[2:1],
{4}E3h[1:1]/E4h[1:1],,,5s1[2:1],
{1},
{16}2bx,6,5,4,3,,8bx,2,3,4,5,,1bx,7,6,5,
{16}4,,7bx,3,4,5,6,,1bx-5[8:1]/2bx-5[8:1],,,,1b/2b,,,,
{16}7bx,4,3,2,1,,5bx,7,8,1,2,,6bx,2,1,8,
{16}7,,3bx,6,7,8,1,,1bx-5[8:1]/2bx-5[8:1],,,,2b/1b<1b[2:3]*>1b[2:3],,,,
{1}A1f,
{1},
{16}D1,D2,D3,D4,D5,D6,D7,D8,D1/4x,3,2,1,8,7,6,5,
{4}C1h[2:1]/4x,,,1w5[8:1],
{8}1b,,7-4[8:1],8-3[8:1],7,8,6-2b[8:1],4,
{4}6b,1<6[8:1]/5>2[8:1],5/1w5[8:1],1x,
{8}3/7V52[4:1],,2V47[4:1],,7<5-1[4:1],,1,2,
{4}3-8[8:1],3-6[8:1]/7-2[8:1],3/7,5x/1-6[8:1],
{4}1/3-8[8:1],3/5-2[8:1],5/7-4[8:1],7/1<6[8:1],
{4}1-3[8:1]*-4[8:1],1-6[8:1]*-7[8:1],1w5[8:1],1x,
{16}1b/7bx,,1b/7bx,,1,2,3,4,5bx/8b,,5bx/8b,,8,7,6,5,
{8}2bx/4bx,1bx/5bx,,4b/6b,3b-8[8:1]/7b-4[8:1],,3/7,,
{16}1b/5b,,3,4,3,4,2b,,6,5,6,5,7b,,2,4,
{16}2,4,1b,,7,5,7,5,8b,7,6,5,2,3,4,5,
{16}8b,,2,1,2,1,3b,,7,8,7,8,6b,,2,4,
{16}3,4,2b,,7,5,6,4,5b-2[8:1]*-8[8:1],,,,5,,,,
{8}3<6[8:1],2,1,8,7>2[8:1],6,5,4,
{8}3-8[8:1],4-7[8:1],3,4,1w5[8:1],,1,,
{16}3b/7b,,,,8,7,6,5,8,7,6,5,8,7,6,5,
{16}1/4,2,3,4,1/5,8,7,6,4/5,3,2,1,7/8,6,5,4,
{16}1b,2,3,4,5/8,1,2,3,4/7,8,1,2,3h[8:1]/7h[8:1],,,,
{32}7,6,5,4,3,2,1,8,7,6,5,4,3,2,1,8,B5/B6/E6f/7,,,,,,,,1b/8b,,,,,,,,
{16}1h[8:1]/2h[8:1],,,3h[8:1]/4h[8:1],,,5/6,,4/7,,,,7h[8:1]/8h[8:1],,,5h[8:1]/6h[8:1],
{16},,3/4,,2h[4:1]/5,,,,1,8,7,6,1,2,3,4,
{16}5h[8:1]/6h[8:1],,,7h[8:1]/8h[8:1],,,1/2,,3/8,,,,3h[8:1]/4h[8:1],,,1h[8:1]/2h[8:1],
{8},3/8,4>1[8:1]/7<4[8:1],,7/4-8[8:1],,,,
{16}1h[8:1]/7h[8:1],,,2h[8:1]/3h[8:1],,,5/6,,4/7,,4/7,,2h[8:1]/8h[8:1],,,6h[8:1]/7h[8:1],
{16},,3/4,,2/5,,1/6,,7,8,7,8,6,1,5,2,
{16}4h[8:1],,3,6h[8:1],,5,7,,1/7,2,3,4,5h[8:1],,6,3h[8:1],
{16},4,2,,5,,1/6,,7/8,,1/2,,3/7-3[8:1],,4/6,,
{16}3b/7b,,,,2<7[4:1],,,,5,,,,6,,6,5,
{16}7h[4:1],,,,3>8[4:1],,,,6,,,,7,,7,8,
{16}6-3[4:1],,,,3-8[4:1],,,,8<5[4:1],,,,1x,,1x,2x,
{16}3xh[4:1],,,,8,,8,7,6h[4:1],,,,5,,,,
{16}3/4,,2/5,,1/6,,7,8,6,,4/7,,3/8,,2,1,
{16}3,,7,8,6,,3,4,2,,1/8,,1b/8b,,,,
{16}7b,5,6,2b,4,3,8b,,1/7,,3/5,,2b,4,3,7b,
{16}5,6,8b,,8x,,1,7,2,7,3,7,4,7,5,7,
{24}5-1b[8:1],6,7,8,1,2,3bxh[4:9]/5b,,,,,,,,,,,,,,,,,,
{1},,
E

Re:MASTER


名前:
コメント:

タグ:

+ タグ編集
  • タグ:
最終更新:2026年04月11日 18:12