EASY
BASIC
ADVANCED
EXPERT
MASTER
(186){8}
6b/7b,67,,58,14,,1b/8b,18,,27,36,,5,4,3,2,
2h[8:3],,8,8h[2:1],,,6,6h[2:1],,,4,4h[2:1],,,3>6[4:3],3h[8:15],{1},{4},,,6,
{8}23,4,5,68,,7,6,52,,4,6,73,,6,4,1^4[8:5]/5^8[8:5],{1},{8}46,,35,,4,5,63,,
{4}1h[4:1]/2,2,7/8h[4:1],7,5-3[8:1],5-2[8:1],{2}5-1[8:1],
2/3q8[8:1],7/6p1[8:1],{4}36,3v1[8:1]/6v8[8:1],,,
{8}1,,8,8h[8:3],,,6,,8,,1,1h[8:3],,,3,,1,,7,7h[8:3],,,5,,3,4,5,6h[8:3],,,7,,
2-5[8:1],,,1-6[8:1],,,4,,7-4[8:1],,,8-3[8:1],,,5,,3-7[8:1],,,6-2[8:1],,,8,,6,5,4,3h[8:3],,,2,,
3,4,3,,6,5,6,,3,4,5,6h[8:3],,1,1,,7,6,7,,2,3,2,,6,5,4,3h[8:3],,8,8,,
{4}3h[4:1],5h[4:1],6,57,6h[4:1],4h[4:1],3,24,{1}2q5[2:1],{8}6,5,4,1h[8:3]/2h[8:3],{2},
{8}12,12,,3^6[8:1]/8h[4:5],,,,,7,7,,1,,1,,,56,56,,4h[4:5]/7^2[8:1],,,,,3,3,,5,,5,,,
{4}2^5[4:1],5^8[4:1],8^3[4:1],,7^4[4:1],4^1[4:1],1^6[4:1],,{6}2,3,2,7,6,7,1,8,1,{4}27,1b,
{4}1-6[8:1],8,7-3[8:1],8,{8}1,2,3,4-8[8:1],{2},{4}8-3[8:1],1,2-6[8:1],1,{8}8,7,6,5-1[8:1],{2},
{2}1h[4:1]/2^5[8:1],7^4[8:1]/8h[4:1],{8}2-5[8:1],1-6[8:1],,,,
46,37,{1}2v5[8:3]/8v5[8:3],3-7[8:3]/6-4[8:3],{8},
3,4,5,6,2,1,8,7,26,37,48,5^2[8:1]/1^6[8:1],{2},{8}6,5,4,3,7,8,1,2,73,62,51,4^7[8:1]/8^3[8:1],{2},
{8}8,7,1,2,6,5,3,4,78,16,25,34,,7,8,1h[4:1],,,,2,4,6,8,
{4}8-5[8:1],1-4[8:1],7^2[8:1],3-7[8:1],6^3[8:1],,{8},4,5,63,,
1b/2b,1b/2b,,7b/8b,7b/8b,,3b/8b,3b/8b,,6b/1b,6b/1b,,4,5,6,7,
67,5,4,31,,2,3,47,,5,3,26,,3,5,1h[8:7]/6h[8:7],{1},{8}1,,1,,5,4,36,,
3,4,5,6/7h[4:1],,6,4,3/2h[4:1],,4,6,7/8h[4:1],,6,4,1q7[8:5]/2q8[8:5],{1},{8}1,8,2,7,3,6,4b/5b,,
12,12,,78,78,,25,25,,47,47,,1,8,1,{1}2b/7b,,,,E
Re:MASTER
- MASTER譜面を追加しました。修正等ありましたらよろしくお願いします。 -- けもがみ (2026-03-23 20:50:00)
最終更新:2026年10月04日 09:45