EASY
BASIC
ADVANCED
EXPERT
MASTER
(135)
{2},{32},,,
{16}1,2,{64}3,,,,,4,,,,,5,,,,,6,,,,,{16}7,{64}8,,,,,1,,,,,{32}2,,,{64}3,,,,,4,,,,,
{32}5,,,6,,,7,,,{64}8,,,,,,,1,,,,,,,2,,,,,,,{8}3,4,{64}5,,,,,,,,,,,6,,,,,,,,,,,,,,,,,,,8,,,,,,,,,,,
{4}1h[4:3],8v2[4:1],,,4h[4:3],3v5[4:1],,,5h[4:3],6v4[4:1],,,8h[2:1],1v7[4:1],,8b,
{16}6,,6,,3,4,,2h[4:1],,,,3,,3,4,,6,,6,,3,4,,3h[4:1],,,,2,,2,1,,
3,,3,,6,5,,7h[4:1],,,,6,,6,5,,3,,3,,6,5,,7h[16:3]/8,,,6h[16:3],,,5,,,
2,,3,,6,5,,7h[4:1],,,,6,,6,5,,2,,3,,6,5,,6h[4:1],,,,8,,8,7,,
7,,6,,3,4,,7h[4:1],,,,3,,3,4,,7,,6,,3,4,,2q3[16:3],{2},
{8}7,8,1,{64},,,,,3h[64:11]/4h[64:27],,,{8},,3,3,2,1,8,{64},,,,,6h[64:11]/5h[64:27],,,{8},,6,6,
7,8,1,{64},,,,,4h[64:11]/3h[64:27],,,{8},,4,4,2,1,8,{64},,,,,6h[64:11]/5,,,{8},5h[64:13],{64},,,,,7,,,{8},
5,4,3,{64},,,,,1h[64:11]/2h[64:27],,,{8},,3,1,4,5,6,{64},,,,,8h[64:11]/7h[64:27],,,{8},,6,8,
5,4,3,{64},,,,,1h[64:11]/2h[64:27],,,{8},,3,1,4,5,6,{64},,,,,7p6[64:11],,,{2},
{8}28,1,3,{64}6,,,,,{8}5,{64}5,,,{8}6,47,5,71,8,6,{64}3,,,,,{8}4,{64}4,,,{8}3,52,4,
28,1,3,{64}6,,,,,{8}5,{64}5,,,{8}6,47,5,71,8,6,{64}3,,,,,{8}4,{64}4,,,{8}3,52,5b/2b,
64,5,7,{64}2,,,,,{8}1,{64}1,,,{8}2,83,1,35,4,2,{64}7,,,,,{8}8,{64}8,,,{8}7,16,8,
64,5,7,{64}2,,,,,{8}1,{64}1,,,{8}2,83,1,35,4,2,{64}7,,,,,{8}8,{64}8,,,{8}7,1b/6b,,
{64},,,,,2,,,1,,,,,3,,,{8}8,{64}6,,,,,{8}5-2[8:1],{64}5,,,{8}6,,,
{64},,,,,7,,,8,,,,,6,,,{8}1,{64}3,,,,,{8}4-7[8:1],{64}4,,,{8}3,,,
{64},,,,,2,,,1,,,,,3,,,{8}8,{64}6,,,,,{8}5-2[8:1],{64}5,,,{8}6,,,
{64},,,,,7,,,8,,,,,6,,,{8}1,{64}3,,,,,{8}4q7[64:11],{64}4,,,{8}3,,,
{64},,,,,1,,,8,,,,,2,,,{8}7,{64}4,,,,,{8}5q4[64:11],{64}5,,,{8}4,,,
{64},,,,,5,,,4,,,,,6,,,{8}3,{64}8,,,,,{8}1q8[64:11],{64}1,,,{8}8,,,
{64},,,,,7,,,6,,,,,8,,,{8}5,{64}2,,,,,{8}3q2[64:11],{64}3,,,{8}2,,,
{64},,,,,2,,,3,,,,,1,,,{8}4,{64},,,,,7h[64:11],,,{8},6,{4}2^4[8:1]/8^6[8:1],
2v5[8:1]/8v5[8:1],2^4[8:1]/8^6[8:1],,{8},{4}5h[4:1],4h[4:1],3,{8}8,{4}7^5[8:1]/1^3[8:1],
7v4[8:1]/1v4[8:1],7^5[8:1]/1^3[8:1],,{8},{4}4h[4:1],5h[4:1],6,{8}1,{4}2^4[8:1]/8^6[8:1],
2v1[8:1]/8v5[8:1],2^4[8:1]/8^6[8:1],,{8},{4}5h[4:1],4h[4:1],3,{8}8,{4}7^5[8:1]/1^3[8:1],
7v8[8:1]/1v4[8:1],7^5[8:1]/1^3[8:1],,{8},{4}4h[4:1],5h[4:1],6h[4:1],{8}7,8b,,
17,57,3q8[8:1]/5,,,{16},2h[16:3],,,1,,{8}82,42,6p1[8:1]/4,,,{16},7h[16:3],,,8,,
{8}17,57,3q8[8:1]/5,,,{16},2h[16:3],,,1,,{8}82,42,{16}6h[16:3]/4,,,8h[16:3],,,7h[16:3],,,6,,,
{8}53,13,7q4[8:1]/1,,,{16},6h[16:3],,,5,,{8}46,86,2p5[8:1]/8,,,{16},3h[16:3],,,4,,
{8}53,13,7q4[8:1]/1,,,{16},6h[16:3],,,5,,{8}46,86,{16}2h[16:3]/8,,,3h[16:5],,,,,{4}1,
{16}8,7,{64}6,,,,,5,,,,,4,,,,,3,,,,,{16}2,{64}1,,,,,8,,,,,{32}7,,,{64}6,,,,,5,,,,,{32}4,,,
3,,,2,,,{64}1,,,,,,,8,,,,,,,7,,,,,,,{32}6,,,,,{16}5,,,{8}4,,,3,,,{32}2,,,,,,,,,,,,,,,,,,,,,
{64}1b,,,,,,,{1}1b,,,,E
Re:MASTER
- MASTER譜面を追加しました。修正等ありましたらよろしくお願いします。 -- けもがみ (2026-03-24 12:28:01)
最終更新:2026年10月04日 17:52