EASY
BASIC
ADVANCED
EXPERT
MASTER
(98)
{2}4>5[2:1]/5h[4:1],4h[4:1],5<4[2:1]/4h[4:1],5h[4:1],
{4}45,46,45,35,{24}45,,,,,4,{8}5,45,{2}4^1[12:1]/5^8[12:1],
{8}57,4,{24}3,,3,{8}4,42,5,{24}6,,6,{8}5,
57,4,{24}3,,3,{8}4,42,5,{24}6^1[8:1],,6,{8}5,
56,4,{24}3^8[8:1],,3,{8}4,43,5,{24}6^1[8:1],,6,{8}5,
56,4,{24}3^8[8:1],,3,{8}4,43,5,{24}6,,6,{8}5,
{24}2b/7b,,,,,15,,,,45,,,4,,4,5,,5,3,,3,4,,,72,,,,,84,,,,54,,,5,,5,4,,4,6,,6,5,,,
{8}4/5^8[6:1],6,4^1[6:1],3,5^8[6:1],6,4^2[12:1],3,5^7[12:1],6,4^2[12:1],3,5v4[8:1],6,1,,
57,45,{24}24,,5,4,,,57,,4,5,,,{8}36,45,42,54,{24}75,,4,5,,,42,,5,4,,,{8}63,54,
5/4^1[6:1],3,5^8[6:1],6,4^1[6:1],3,5^7[12:1],6,4^2[12:1],3,5qq8[4:1],6,{4}4,1,
5qq8[8:3]/6h[8:1],6h[8:1],7h[4:1],1,8pp5[8:3]/7h[8:1],7h[8:1],6h[4:1],4,
4pp1[8:3]/3h[8:1],3h[8:1],2h[4:1],8,{8}1qq4[8:3]/2,2,2,,2,2,12,,
2qq7[8:3]/6,,5,,4,4,36,,7pp2[8:3]/3,,4,,5,5,63,,
3,24,6,57,1,28,37,4>5[8:5]/6<5[8:5],5,46,{4},,,
{24}4,,4,5,,,{2}4^1[8:1]/5^8[8:1],{8}1>5[8:1]*<5[8:1]/5,1/5w1[8:1],
1,,{24},,6,5,,47,,,1,{8}8,8<4[8:1]*>4[8:1]/4,8/4w8[8:1],
8,,{24},,3,4,,52,,,8,{8}1,2q6[8:1]/7,45,
7p3[8:1]/2,8,2q6[8:1]/7,1,7p3[8:1]/2,8,2<5[6:1]/7,1,
72,,1b/8b,,7,68,1>5[8:1]*<5[8:1]/5,1/5w1[8:1],
1,,{24},,3,4,,52,,,8,3,,3,6,,6,{8}1h[4:3],,2>7[8:1],7,2,,8,27,36,
24,1,57,8,18,27,36,4qq1[8:3]/5pp8[8:3],{2}45,{8},3b/7b,4b/8b,1b^4[12:1]/5b,
37,1^6[12:1]/5,6,1^4[12:1]/5,4,1^6[12:1]/5,6,1^4[12:1]/5,4,1^6[12:1]/5,6,15,4,26,15,8^5[12:1]/4,
62,8^3[12:1]/4,3,8^5[12:1]/4,5,8^3[12:1]/4,3,8^5[12:1]/4,5,8^3[12:1]/4,3,84,5,73,84,1^4[12:1]/5,
37,1^6[12:1]/5,7,1^4[12:1]/5,3,1^6[12:1]/5,7,1^4[12:1]/5,3,1^6[12:1]/5,7,15,3,26,15,8^5[12:1]/4,
62,8^3[12:1]/4,2,8^5[12:1]/4,6,8^3[12:1]/4,2,84,6,{24}45,,45,,,36,,,3h[12:5]/6h[12:5],{2},
{24}35,,2,4,,,64,,7,5,,,2^7[8:1]/4,,3,{8}4,25,6,
{24}64,,7,5,,,35,,2,4,,,7^2[8:1]/5,,6,{8}5,74,3,
{24}35,,2,4,,,64,,7,5,,,2^7[8:1]/4,,3,{8}4,25,6,
3h[8:1]/5,1h[8:1],8h[8:1],6h[8:1],8h[8:1],1,37,,
{24}71,,6,8,,,28,,3,1,,,6^1[8:1]/8,,7,{8}8,62,4,
{24}28,,3,1,,,71,,6,8,,,3^8[8:1]/1,,2,{8}1,37,5,
{24}71,,6,8,,,28,,3,1,,,68,,7,{8}8,15,4h[8:1]/5h[8:1],
,1b/8b,3h[8:1],1h[8:1],8h[8:1],6h[8:1],{24}3,,8,1,,{1}2b/7b,,,,E
Re:MASTER
- MASTER譜面を追加しました。修正等ありましたらよろしくお願いします。 -- けもがみ (2026-03-25 11:59:06)
最終更新:2026年10月04日 18:13