アットウィキロゴ

リッジでリッジでGO!GO!GO! -GMT mashup-

アーティスト Hiro(SEGA)「RIDGE RACER」「電車でGO!」

BPM EASY BASIC ADVANCED EXPERT MASTER Re:MASTER
146 2 4 8 11+ 13+ -

EXPERT MASTER Re:MASTER
譜面制作者 はっぴー 某S氏 -

BASIC


ADVANCED


EXPERT


MASTER

(146){4}
1,2,3,4,8,7,6,5,
{16}1,8,1,8,1,8,1,8,1,8,1,8,1,8,1,8,{4}1b,1b,1b,1b,

{16}2,,5,4,1b/2b,,,,7,,4,5,7b/8b,,,,3,,5,4,6,,4,5,3,,5,4,2b/7b,,,,
4,,5,3,1b/2b,,,,5,,4,6,{8}7b/8b,,5b,28,4b,17,5b,28,4b,17,
3,{16}6,4,1b/2b,,,,6,,3,5,7b/8b,,,,3,,6,4,6,,3,5,3,,6,4,2b/7b,,,,
6,,5,3,1b/2b,,,,3,,4,6,7b/8b,,,,5b,,12,,4b,,78,,3b/7b,,,1b/5b,,,3b/7b,,

6,,5,,4,,2-5[8:1],2,,8,8,,7,,6,,3,,4,,5,,7-4[8:1],7,,1,1,,2,,3,,
2,,1,,8,,6-1[8:1],6,,4,{8}4,3,2,3b,78,6b,12,3b/5b,78,4b/6b,12,
3,5,6,{16}8^5[8:1],8,,3,2,,1,,8,,6,,4,,3,,1^4[8:1],1,,6,7,,8,,1,,
3,,1,,8,,6^1[8:1],6,,3,4,,5,,6,,4b/6b,,12,,3b/5b,,78,,2b/6b,,,4b/8b,{8},2b/6b,
4/5<4[2:1],45,,,,,,,

2h[16:3],{16},3,,,5,,8h[16:3],,,6,,,4,,2,,7,8,7,,1,,13,,24,,35,,46,,
7h[16:3],,,6,,,4,,1h[16:3],,,3,,,5,,48,,,,15,,,,68,,57,,46,,35,,
2h[16:3],,,3,,,46,,8h[16:3],,,6,,,35,,2,,8,1,{8}8,2,16,38,25,47,
45,,4-1[8:1]/5-8[8:1],,4b/5b,,,,2,2,6,{16}6,1,,1,,1,8,,7,,

{4}6-2[8:1],8b,3-7[8:1],1b,{16}2,,2,,5,4,,8,,8,,8,7,,6,,
{4}3-7[8:1],1b,6-2[8:1],8b,1b/5b,3b/7b,2b/6b,4b/8b,
5-2[8:1]/7,5b/7b,2/4-7[8:1],2b/4b,{16}7,,7,,4,5,,1,,1,,1,2,,3,,
{4}3-8[8:1]/7-4[8:1],3b/7b,2-5[8:1]/6-1[8:1],2b/6b,7b/8b,1b/2b,{16}1b/5b,,,4b/8b,,,2b/6b,,

3,4,3,,6,5,,37,,8,1,2,3,,,,6,5,6,,3,4,,1^6[8:1],,,,,2b,,,,
2,1,2,,7,8,,37,,5,4,3,2,,,,8,1,,,46,,5,,12,,,78,,,,,
6,5,6,,3,4,,26,,1,8,7,6,,,,3,4,3,,6,5,,8^3[8:1],,,,,7b,,,,
7,8,7,,2,1,,26,,4,5,6,7,,,,7b/8b,,,,1b/2b,,,,3b/7b,,,2b/6b,,,4b/8b,,
4,5,,,7,,5,,3h[16:3],,1,1,,,3,,5,4,,,2,,4,,26,,7,37,,,,,
5,4,,,2,,4,,6h[16:3],,8,8,,,6,,4,5,,,7,,5,,37,,2,26,,,,,
2,1,,,7,,1,,8h[16:3],,6,6,,,5,,7,8,,,2,,8,,15,,7,37,,,,,
6,5,,,3,,5,,6h[16:3],,8,8,,,8,,1b/5b,,,,3b/7b,,,,2b/6b,,,4b/8b,,,2b/6b,,

3,,6,5,6,,3,4,3,,6,5,6b,,3,4,2,,7,5,7,,2,4,2,,7,5,7b,,2,4,
1,,8,4,8,,1,5,1,,8,4,8b,,1,5,{4}1b,3b,5b,7b,
{16}1,,8,4,8,,2,6,2,,7,3,7b,,1,5,1,,8,5,8,,2,4,2,,7,5,7b,,1,4,
1,5,2,6,3,7,4,8,5,1,4,8,3b,7,2,6,1b,,,,1b,,,,3b/7b,,,1b/5b,,,3b/7b,,
2,,5,4,6,,3,5,2,,7,4,1b/2b,,,,7,,4,5,3,,6,4,7,,2,5,7b/8b,,,,
34,,25,,56,,47,,36,,4,5,{8}2b/7b,,5b/7b,1,2b/4b,8,5b/7b,12,2b/4b,78,
3,{16}6,5,7,,3,4,2,,7,2,1b/8b,,,,4,5,3,6,2,7,1,8,45,,4,5,2b/7b,,,,
5,,1b/2b,,4,,7b/8b,,5^2[8:1],,8,7,6b,,,,2b/5b,,2,,4b/7b,,7,,6b/8b,,,2b/8b,,,2b/4b,,

3-8[8:1]/4-7[8:1],,34,,,,,,8,7,,1,,2,5,,5-2[8:1]/6-1[8:1],,56,,,,,,1,2,,8,,7,{8}4,
4-1[8:1]/5-8[8:1],45,,,{32}1,2,3,4,5,6,7,8,1,2,3,4,5,6,7,8,{4}1,1b/8b,,,
{1},,E

Re:MASTER


名前:
コメント:

タグ:

+ タグ編集
  • タグ:
最終更新:2026年10月16日 21:40