アットウィキロゴ

スリップフリップ

アーティスト tilt-six feat.串伊トモミ

BPM EASY BASIC ADVANCED EXPERT MASTER Re:MASTER
143 3 4 9 10+ 13+ -

EXPERT MASTER Re:MASTER
譜面制作者 ロシェ@ペンギン はっぴー -

EASY


BASIC


ADVANCED


EXPERT


MASTER

(143){16}
3h[16:3],,,4h[16:3],,,5qq2[8:3],,,,,,,,,,6h[16:3],,,5h[16:3],,,4pp7[8:3],,,,,,,,,,
3h[16:3],,,4h[16:3],,,5qq2[8:3],,,,,,,,,,6h[16:3],,,5h[16:3],,,4,,{4}4-1[8:1]*-7[8:1],4b,
8-3[8:1]*-5[8:1],8,{16}4h[16:3],,,3,,,25,,1-4[8:1]*-6[8:1],,,,1,,,,5h[16:3],,,6,{8},47,
6-1[8:1],6,3-8[8:1],3,5,5,{32}4,3,2,1,8,7,6,5,{4}4b/8b,,4-8[8:1]/5-1[8:1],4b/5b,

1/6-1[8:1],2-5[8:1]/6,2/7-2[8:1]*-4[8:1],7,3-8[8:1]/8,3/7-4[8:1],2-5[8:1]*-7[8:1]/7,2,
1/6-1[8:1],2-5[8:1]/6,2/7-2[8:1]*-4[8:1],7,3-8[8:1]/8,3/7-4[8:1],2-5[8:1]*-7[8:1]/7,2,
4/7-4[8:1],7/8-3[8:1],4-1[8:1]*-7[8:1]/8,4,2-5[8:1]/5,1-6[8:1]/2,1/5-2[8:1]*-8[8:1],5,
4/7-4[8:1],7/8-3[8:1],4-1[8:1]*-7[8:1]/8,4,{8}2-5[8:1],2,7-4[8:1],7,1-5[8:1],1,{4}8b,

5-1[8:1]*-7[8:1]/7,5,2/4-2[8:1]*-8[8:1],4,5-1[8:1]*-7[8:1]/7,5,2/4-2[8:1]*-8[8:1],4,
{8}5-1[8:1]*-7[8:1]/7,4,5,,2/4-2[8:1]*-8[8:1],5,4,,5-1[8:1]*-7[8:1]/7,4,5,,2/4-2[8:1]*-8[8:1],5,{4}4,
2/5-2[8:1]*-8[8:1],5,4-1[8:1]*-7[8:1]/7,4,2/5-2[8:1]*-8[8:1],5,4-1[8:1]*-7[8:1]/7,4,
{8}2/5-2[8:1],4,56,8,4-7[8:1]/7,5,34,1,{16}1,8,2,7,3,6,4,5,{32}4,3,2,1,8,7,6,5,{4}4b/8b,

1^4[8:1]/6^1[8:1],1-5[8:1]/6,1/4-1[8:1]*-7[8:1],4,3^8[8:1]/8^5[8:1],3/8-4[8:1],5-2[8:1]*-8[8:1]/8,5,
1^4[8:1]/6^1[8:1],1-5[8:1]/6,1/4-8[8:1],{8}4,6,5,3>6[4:1],4,5,{4},48,
4/5V71[8:1],2v4[8:1],5<1[8:1],3,4V28[8:1],7v5[8:1],4>8[8:1],{8}6,7,
8,2,1,2>6[4:1]/7,,6<2[4:1],,2>2[2:1],{4},,,4b/8b,
3^8[8:1]/8^5[8:1],3/8-4[8:1],5-2[8:1]*-8[8:1]/8,5,1^4[8:1]/6^1[8:1],1-5[8:1]/6,1/4-1[8:1]*-7[8:1],4,
3^8[8:1]/8^5[8:1],3/8-4[8:1],5-1[8:1]/8,{8}5,3,4,6<3[4:1],5,4,{4},15,
5/6-2[8:1]*V82[8:1],6,3-7[8:1]*V17[8:1]/4,3,5/6-2[8:1]*V82[8:1],6,3-7[8:1]*V17[8:1]/4,3,
{8}45,46,36,26,27,28,{16}1pp1[4:1],8,1,8,{4}1<2[4:1],,5w1[8:1],5b,

3-8[8:1]/8,3/7-4[8:1],3^6[8:1]*^8[8:1]/7,3,1/6-1[8:1],2-5[8:1]/6,2/6^1[8:1]*^3[8:1],6,
3-8[8:1]/8,3/7-4[8:1],3^6[8:1]*^8[8:1]/7,3,1/6-1[8:1],2-5[8:1]/6,2/6^1[8:1]*^3[8:1],6,
3-8[8:1]/8,3/4-7[8:1],4/8^3[8:1]*^5[8:1],8,1/6-1[8:1],5-2[8:1]/6,1^4[8:1]*^6[8:1]/5,1,
3-8[8:1]/8,3/4-7[8:1],4/8^3[8:1]*^5[8:1],8,{8}6-1[8:1],6,3-8[8:1],3,5-1[8:1],5,4b,,

2h[8:3]/5h[8:3],,,,{16}3,4,1,6,2,5,8,7,{8}8-2[8:1],8,6-4[8:1],6,3-7[8:1],3,,,
1h[16:1]/5h[16:1],2h[16:1]/6h[16:1],1h[16:1]/5h[16:1],4h[16:1]/8h[16:1],{4}1>6[8:1]/5,1s5[8:3]/8z4[8:3],,,{16}18,27,36,45,{4}3h[8:1]/6h[8:1],
4h[8:3]/7h[8:3],,{16}6,5,8,3,7,4,1,2,{8}1-7[8:1],1,3-5[8:1],3,6-2[8:1],6,,,
4h[16:1]/8h[16:1],3h[16:1]/7h[16:1],4h[16:1]/8h[16:1],1h[16:1]/5h[16:1],4h[16:1]/8h[16:1],48,,27,45,36,27,18,{4}3-8[8:1]/6-1[8:1],3b/6b,

4p8[8:1]/8^5[8:1],4q8[8:1]/8^3[8:1],4p8[8:1]/8^5[8:1],48,1^4[8:1]/5q1[8:1],1^6[8:1]/5p1[8:1],1^4[8:1]/5q1[8:1],15,
4p8[8:1]/8^5[8:1],4q8[8:1]/8^3[8:1],4/8^5[8:1],{8}8,2,1,7pp2[4:1],8,1,,,25,,
5-1[8:1]*V71[8:1]/6,47,5,,3/4-8[8:1]*V28[8:1],25,4,,5-1[8:1]*V71[8:1]/6,47,5,,3/4-1[8:1],25,4,7,
8,2,1,2/7<3[4:1],,3>7[4:1],,7<7[2:1],{4},,,1b/5b,
4/5qq2[8:3],,8h[4:1],7,3h[4:1]/4h[4:1],{8},34,25,34,,,
4pp7[8:3]/5,,,,1h[4:1],,2,,7h[16:3],{16},6h[16:3],{8},5,47,56,,,
3-6[8:1],3,2-5[8:1],2,1-4[8:1],1,6-3[8:1],6,7-4[8:1],7,8-5[8:1],8,4-1[8:1],4,5,5,
6,57,3,24,7,68,2,13,{16}7,8,6,1,5,2,4,3,{32}4,5,6,7,8,1,2,3,{4}4b/8b,

1^4[8:1]/5^8[8:1],1/5-1[8:1],5-8[8:1],4-1[8:1]/5,3^6[8:1]*^8[8:1]/4,3-7[8:1],3/6>1[8:1],6,
4^1[8:1]/8^5[8:1],4-8[8:1]/8,4-1[8:1],4/5-8[8:1],5/6^1[8:1]*^3[8:1],6-2[8:1],3<8[8:1]/6,3,
2^5[8:1]/6^1[8:1],2/6-2[8:1],6-1[8:1],5-2[8:1]/6,4^1[8:1]*^7[8:1]/5,4-8[8:1],4/7<2[8:1],7,
3^8[8:1]/7^4[8:1],3-7[8:1]/7,3-8[8:1],3/4-7[8:1],4/5^2[8:1]*^8[8:1],5-1[8:1],2>7[8:1]/5,{8}2/8b,8b,
{1},,E

Re:MASTER


名前:
コメント:

タグ:

+ タグ編集
  • タグ:
最終更新:2026年10月04日 18:15