BASIC
ADVANCED
EXPERT
MASTER
(181)
{4}8/Ch[4:3],,,A6/E7/A7,,2b/8b,
{2}1xh[4:1]/6x-3-5[2:1],2h[4:1],
{2}1h[4:1]/6-3-5[2:1],2h[4:1],
{8}1/6x-3-5[2:1],1,1,,2h[4:1],,,,
{2}1h[4:1]/6-3-5[2:1],2h[4:1],
{4}1h[4:1]/5,5,2h[4:1]/4,4,
{4}1h[4:1]/5,5,2h[4:1]/4,4,
{8}35,3,46,6,35,,4/6h[2:1],,
{4}5x,5w1b[8:1],A5f,,
{8}1x/8x,7h[4:1],,8,2h[8:1]/5h[8:1],,4h[8:1]/7h[8:1],,
{8}3-1[8:1]/5-7[8:1],35,,,3>1[8:1]/5<7[8:1],35,,,
{8}28,7h[4:1],,8,2h[8:1]/5h[8:1],,4h[8:1]/7h[8:1],,
{8}5-1[8:1]/6-8[8:1],56,,,3-1[8:1]/4-8[8:1],34,,,
{8}1x/8x,7/2h[4:1],,1,4h[8:1]/7h[8:1],,2h[8:1]/5h[8:1],,
{8}3-7[8:1]/4-8[8:1],34,,,5-1[8:1]/6-2[8:1],56,,,
{8}1x/2x,7h[4:1],,8,2h[8:1]/5h[8:1],,4h[8:1]/7h[8:1],,
{8}5-3[8:1]/6-2[8:1],56,,,1-5[8:1]/8-4[8:1],18,,,
{1}6b/3hx[2:3],
{4},,B5/B6,B3/B4,
{2}2h[2:1],1h[2:1],
{4}8h[2:1],,B5/B6,B3/B4,
{2}1/2h[2:1],4h[2:1],
{4}5h[2:1],,B5/B6,B3/B4,
{16}7,,,6,,,5,,6,,,5,,,4,,
{16}5,,,4,,,3,,2,,,3,,,46,,
{16}5-7[8:1],,,5h[16:3],,,,,5-3[8:1],,,5h[16:3],,,,,
{16}5-7[8:1],,,5h[16:3],,,,,8x,,,,1x/7x,,,,
{16}4-2[8:1],,,4h[16:3],,,,,4-6[8:1],,,4h[16:3],,,,,
{16}4-2[8:1],,,4h[16:3],,,,,1x,,,,2x/8x,,,,
{16}7h[16:3],,,6h[16:3],,,5,,3h[16:3],,,4h[16:3],,,5,,
{16}6h[16:3],,,7h[16:3],,,8,,1x/7x,,,,2x/6x,,,,
{16}3x,5,3,5x,3,5,3x,5,3x,5,3,5x,3,5,3x,5,
{16}2x,6,2,6x,2,6,2x,6,1x,7,1,7x,1s5[4:1],7,1x,7,
{12},,,,,,,,,6,6,5,
{12}7b,,3,24,,18,8/1b>4[12:1],,1b-6[12:1],,1b,,
{12}5h[6:1],,6,5,7,3,5,3,7,1x,,,
{12}28,,6,57,,18,1/8b<5[12:1],,8b-3[12:1],,8b,,
{12}4h[6:1],,3,4,2,8,3,4,2,7,5,6,
{12}3,3,4,2,,18,8/1b-5[12:1],,1b<6[12:1],,1b,,
{12}4h[6:1],,5,3,5,2,7,5,7,1x,,,
{12}28,,6,57,,18,1/8b-4[12:1],,8b>3[12:1],,8b,,
{12}5h[6:1],,4,6,2,4,3,5,2,1/6b,,,
{4}7h[6:1]/8h[6:1],8/7-3-1[4:1]*-3-5[4:1],,,
{12}1x/7x,,,8,8,8,1x/7x,,2x/6x,,3x/5x,,
{4}1h[6:1]/2h[6:1],1/2-6-8[4:1]*-6-4[4:1],,,
{12}2x/8x,,,1,1,1,2x/8x,,3x/7x,,4x/6x,,
{2}5-2-4v1[4:1]*-8-6v1[4:1],Cf,
{4}8-4[8:1],8/4w8[8:1],Cf,,
{24}1x,8x,1x,8x,1x,8x,1x,8x,1x,8x,1x,8x,1x,8x,1x,8x,1x,8x,1x,8x,1x,8x,1x,8x,
{32}1bx,2,3,4,5,6,7,8,1x,2,3,4,5,6,7,8,1x,2,3,4,5,6,7,8,1x,2,3,4,5,6,7,8,
{4}Cf/1bx-3[16:1],1/7x-5[16:1],7/8x-4b[16:1],8/5x-1[16:1],
{4}5/2x-6[16:1],2/1x-7[16:1],1/3x-5[16:1],3/6x-8[16:1],
{4}6/4x-2[16:1],4/5x-1[16:1],5/2x-6[16:1],2/8x<5[16:1],
{12}8/1x>4[16:1],,,18,,,5/7b,,4b/5,,2b/4,,
{4}5bx-7[16:1],5/3bx-1[16:1],3/4bx-8b[16:1],4/1bx-5[16:1],
{4}1/6bx-2[16:1],6/5bx-3[16:1],5/7bx-1[16:1],7/2bx-4[16:1],
{4}2/8bx-6[16:1],8/1bx-5[16:1],1/6bx,8/4b>1[16:1],
{12}4/5b<8[16:1],,,5/4b,,,1h[12:1]/2bh[12:1],,3h[12:1]/8bh[12:1],,4bh[12:1]/7h[12:1],,
{12}5x/6x,,7,7h[6:1],,5,5,,,46,,,
{12}34,,2,2h[6:1],,4,4,,,35,,,
{12}56,,7,7h[6:1],,5,5,,,46,,,
{12}35,,2,4,,4,5,,5,6,,,
{12}78,,6,6h[6:1],,5,5,,,34,,,
{12}12,,3,3h[6:1],,4,4,,,45,,,
{12}57,,6,6,,4,5,,3,3,,5,
{12}4,,,57,,,48,,,16,,,
{12}2h[6:1],,4,4-6[12:1],,3,3,,,47,,,
{12}7h[6:1],,5,5-3[12:1],,6,6,,,5/2x,,,
{12}3h[6:1],,4,4-6[12:1],,2,2-4[12:1],,,7x,,,
{12}6h[6:1],,5,5-3[12:1],,7,7-5[12:1],,,2x,,,
{12}3,,24,4/2h[6:1],,1,1,,,38,,,
{12}6,,57,5/7h[6:1],,8,8,,,26,,,
{4}3-5[12:1]/7-5[12:1],3-1v4[4:1]/7-1v6[4:1],,,
{4}3/7h[2:1],,1-5b[8:1],1b,
{12}6,6,5,7,,18,1/8b-5[12:1],,8/3b-8[12:1],,3b,,
{12}4h[6:1],,1,5,3,8,4,6,2,8[4:1],,,
{12}1,,3,24,,18,8/1b-4[12:1],,1/6b-1[12:1],,6b,,
{12}5h[6:1],,8,4,6,3,5,1,7,3,5,1,
{12}6,6,5,7,,12,2/1b<6[12:1],,1/4b>1[12:1],,4b,,
{12}5h[6:1],,1,4,3,6,5,7,2,8[4:1],,,
{12}1,,3,24,,78,7/8b>3[12:1],,8/5b<8[12:1],,5b,,
{12}4h[6:1],,7,5,6,1,5,3,8,1b/7b,,,
{12}3,3,4,25,,78,1/6b-1[12:1],,6b/3b-6[12:1],,3b,,
{12}8h[6:1],,5,7,4,6,1-5b[12:1],8,2,1,,,
{12}3b/7b,,6,57,,12,8/3b-8[12:1],,3b/6b-3[12:1],,6b,,
{12}1h[6:1],,4,2,6,4,7,1,8,4,5,3,
{12}7b,7,8,16,,34,3/4b-7[12:1],,4b/1b-5[12:1],,1b,,
{12}8h[6:1],,4,6,3,5,1-5b[12:1],8,2,1,,,
{12}4b/6b,,12,38,,56,6/5b-2[12:1],,5b/8b-4[12:1],,8b,,
{12}1h[6:1],,5,3,7,2,8w4b[12:1],1,7,A8/B8/Cf/B4/A4/B2/B6,,,
{1},,,,E
Re:MASTER
最終更新:2026年03月29日 12:42