EASY
BASIC
ADVANCED
EXPERT
MASTER
(150)
{1},{4}6,{16}6,,,4,5,,5,,{4}36,
2-5[8:1]/5,4,7-4[8:1]/4,5,2-5[8:1]/5,4,7-4[8:1]/4,5,
1-5[8:1]/5,4,8-4[8:1]/4,5,1-5[8:1]/5,4,83,16,
7-4[8:1]/4,5,2-5[8:1]/5,4,7-4[8:1]/4,5,2-5[8:1]/5,4,
8-4[8:1]/4,5,1-5[8:1]/5,4,84,4/5-8[8:1],1-4[8:1],5,
56,36,56,36,43,63,43,6/1^4[8:1]*^6[8:1],
,{8}28,28,,45,{4}45,3/6-1[8:1],2,4/6-1[8:1],2,
43,63,43,63,56,36,56,3/8qq6[8:1]*pp2[8:1],
,{8}71,71,,54,{4}54,6/3-8[8:1],7,5/3-8[8:1],7,
{8}6,6,5,4,3,4,5,6,6,5,4,3,{4}2h[8:1]/8h[8:1],7h[8:1]/1h[8:1],
{8}3,3,4,5,6,5,4,3,3,5,7,4,2,3,5,4,
6,6,5,4,3,4,5,6,6,5,4,4,{4}3h[8:1]/6h[8:1],3h[8:1]/6h[8:1],
{8}5,5,4,4,5,7,4,2,{4}1b/8b,,,45,
{2}3^8[8:1]/6^3[8:1],3^8[8:1]/6^3[8:1],{8}35,5,{4}4-2[8:1]*-8[8:1]/6,,3/4-8[8:1],
{8}1,1,3,2h[4:3],,6,7,8h[4:1],{4},28,16,3b/8b,
{2}6^1[8:1]/3^6[8:1],6^1[8:1]/3^6[8:1],{8}64,4,{4}5-7[8:1]*-1[8:1]/3,,6/5-1[8:1],
{4}8h[8:3],3h[8:1],38,{8}46,5,3,4,{4}5-1[8:1]/6-2[8:1],,35,
{2}6^1[8:1]/3^6[8:1],6^1[8:1]/3^6[8:1],{8}64,6,{4}5-7[8:1]*-1[8:1]/4,,6/5-1[8:1],
{8}7,7,4,5h[8:9],,1,1,2v8[4:1],{4},,1,2b/8b,
{2}3^8[8:1]/6^3[8:1],3^8[8:1]/6^3[8:1],{8}35,3,{4}4-2[8:1]*-8[8:1]/5,,3/4-8[8:1],
{8}2,2,3^6[8:1],,8h[4:1],,2,2h[4:1],,4,{4}4,2b/6b,3b/7b,
{8}6,5,6,,47,,,3,3,4,3,,25,,,6,6,5,6,,64,,,3,3,4,3,,35,,,5,
5,4,6,,56,,,4,4,5,3,,43,,,5,5,4,{4}5,45,,{1}4,
{4}2^7[8:1]/6,5,7^2[8:1]/3,4,2^7[8:1]/6,5,35,46,
7^2[8:1]/3,4,2^7[8:1]/6,5,7^2[8:1]/3,4-8[4:1],,,
6^3[8:1]/2,8,3^6[8:1]/7,1,6^3[8:1]/2,8,18,27,
3^6[8:1]/7,1,6^3[8:1]/2,8,3^6[8:1]/7,1,45,18,
3-6[8:1]/6,,,45,
4/5-8[8:3],4,4,4,5/4-1[8:3],5,5,5,
4/5-8[8:3],4,4,4,5/4qq1[2:1],5,5,5,
4/5-8[8:3],4,3,3,5/4-1[8:3],5,6,6,
4/5-8[8:3],3,2,1-5[8:1],8v6[8:1],2v4[8:1],8,2b/7b,
3-8[8:1]/5,6-1[8:1],3-8[8:1],6-1[8:1],{8}3,3,{2}3-8[8:1]/4-7[8:1],6-1[8:1]/5-2[8:1],
{8}35,4,5,4,{4}2<5[4:1]/3p4[4:1],,,45,2b/7b,
6-1[8:1]/4,3-8[8:1],6-1[8:1],3-8[8:1],{8}6,6,{2}6-1[8:1]/5-2[8:1],3-8[8:1]/4-7[8:1],
{4}6h[8:1]/4h[8:1],3h[8:1]/5h[8:1],6h[8:1]/4h[8:1],
3h[8:1]/4h[8:1],6h[8:1]/5h[8:1],3h[8:1]/5h[8:1],45,
{2}7^4[8:1]/2^7[8:1],7^4[8:1]/2^7[8:1],{8}18,2,{2}2-7[8:1]/3-6[8:1],7-2[8:1]/6-3[8:1],
{8}1,2,7,6,{4}4qq1[8:3]/5pp8[8:3],,,45,2b/7b,
{2}2^5[8:1]/7^2[8:1],2^5[8:1]/7^2[8:1],{8}81,7,{2}7-2[8:1]/6-3[8:1],1v4[8:1]*v6[8:1],
{8}8,8,1,1,6,7,3,2,5,5,{4}26,37,
5-1[8:1]/6,7,5-1[8:1]/6,8,4-8[8:1]/3,2,4-8[8:1]/3,1,
5-1[8:1]/6,7,5-1[8:1]/6,8,4-8[8:1]/3,2,45,{1}45,,,,E
Re:MASTER
- MASTER譜面を追加しました。修正等ありましたらよろしくお願いします。 -- けもがみ (2026-03-27 12:20:23)
最終更新:2026年10月03日 22:30