アットウィキロゴ

星見草

アーティスト 秋田 真典

BPM BASIC ADVANCED EXPERT MASTER Re:MASTER
164 4 8 11 13+ -

EXPERT MASTER Re:MASTER
譜面制作者 翠楼屋 Redarrow -

BASIC


ADVANCED


EXPERT


MASTER

(164)

{16},,,,,,,,,,,,1,2,3,4,

{8}56,56,,37,7/3-1-7[4:1],,7-5-3[4:1],,
{16}3-1-7[4:1],,,,7p3[4:1],,,,3,,,,8,7,6,5,
{8}43,43,,62,2/6-8-3[4:1],,3-5-8[4:1],,
{16}8-4[4:1],,,,,,,,26,,,,45,3,2,1,
{8}8/7s3[2:1],,1,2,3-1[8:1]*-5[8:1],,,,
{8}7/6z2[2:1],,8,1,2-8[8:1]*-4[8:1],,,,
{8}6x/5x>2[8:1],6,7,7,1/8x<5x[8:1],1,2,2,
{4}4x/3x-7[8:1],3/1-5[8:1],1/4-8[8:1],46,
{16}5,,37,,4,,26,,3,4,3,4,2,5,2,5,
{1}1bq2[2:1]/6p4[2:1],
{8}3,3h[8:7],,5,,5,,5,
{8}4,4h[8:7],,6,,6,,6,
{8}5,5h[8:7],,7,,7,,7,
{8}6,6h[8:5],,7,,8,8,,
{8}6,6h[8:7],,4,,4,,4,
{8}5,5h[8:7],,3,,3,,3,
{8}4,4h[8:7],,2,,2,,2,
{8}3,3h[8:7],,2,,2,,2,
{16}1h[4:1],,,,2,1,2,1,3,8,3,8,4,7,4,7,
{8}5/6-1[8:1],5/6h[4:1],,,4/3-8[8:1],4/3h[4:1],,,
{8}57,57,6,5-1[8:1]/7-3[8:1],,57,,2,
{8}1/2-5[8:1],1/2h[4:1],,,8/7-4[8:1],8/7h[4:1],,,
{8}13,13,2,1-5[8:1]/3-7[8:1],,13,,6,
{4}5/6-3[8:1],7/6q4[4:1],6h[4:1],,
{4}4/3-6[8:1],2/3p5[4:1],3h[4:1],,
{4}6>3[4:1],3>8[4:1],8<5[4:1],5>2>1[4:3],
{1}1hx[8:3],
{16}3x/2x,,,3x/2x,,,3x/2x,,1b-3[8:1]*-6[8:1],,,,,,,,
{16}4,5,4,,4,6,4,,4,5,4,,4,7,4,,
{16}5,6,5,,5,8,5,,5,6,5,,5,1,5,,
{16}6,7,6,,6,2,6,,6,7,6,,58,,,,
{16}7,8,7,,7,2,7,,7,8,7,,7,3,7,,
{16}8,1,8,,8,4,8,,8,1,8,,8,5,8,,
{16}1,2,1,,1,6,1,,1,2,1,,1,7,1,,
{16}38,,38,,17,,17,,3,6,3,6,4,5,4,5,
{16}6x/7x,,,6x/7x,,,6x/7x,,8b-6[8:1]*-3[8:1],,,,,,,,
{16}5,4,5,,5,3,5,,5,4,5,,5,2,5,,
{16}4,3,4,,4,1,4,,4,3,4,,4,8,4,,
{16}3,2,3,,3,7,3,,1x/4x,1x/4x,,,3,,3,,
{8}45,6,35,7,46,8,57,1,
{8}48,2,14,3,24,5,34,6,
{8}7/5-3[8:1],6,57,,2/4-6[8:1],3,42,,
{24}17,,,3,,,28,,,6,,,78,,,1,2,3,5/4z8z4[128:297],,,,,,

(212)

{4},,,,,,
{4}Ch[4:3],,,,,,
{4}6z2z6[4:11],,,,,,
{4}Ch[4:3],,,,,,
{4}3s7s3[4:11],,,,,,
{4}Ch[4:3],,,,,,
{4}7-4[2:1],,,2-5[2:1],,,
{4}6-4[2:1],,,3<6[4:5],,,,,,,

(162)

{8}7h[1:1],,8,8,,6,6,,
{8}5h[1:1],,6,6,,4,4,,
{8}3h[1:1],,4,4,,2,2,,
{16}1h[2:1],,,,,,2x,3x,4x,,,,,,,,
{8}6h[1:1],,5,5,,7,7,,
{8}8h[1:1],,7,7,,1,1,,
{8}2h[1:1],,1,1,,3,3,,
{8}4,4,5,5,3-8[8:1]/6-1[8:1],,,,
{16}7-4[8:1],8,7,,,,1-5[8:1],8,1,,,,7-4[8:1],8,7,,
{16},,1-5[8:1],8,1,,,,8bw4[8:1],,,,8b,,,,
{16}2-5[8:1],1,2,,,,8-4[8:1],1,8,,,,2-5[8:1],1,2,,
{16},,8-4[8:1],1,8,,,,3bxh[16:3],,,5bxh[16:3],,,4bx,,
{16}6-1[8:1],5,6,,,,4-8[8:1],5,4,,,,6-1[8:1],5,6,,
{16},,4-8[8:1],5,4,,,,6bw2[8:1],,,,6b,,,,
{8}4/8-4[8:1],,3,2,5/1-5[8:1],,6,7,
{16}48,,48,,26,,26,,1,8,1,8,2,7,2,7,
{16}4,5,3,6,4w8[8:1],,4,,,,,,2b/6b,,,,
{16}48,7,6,5,8/4-8[8:1],,1,,24,,3,,47,,6,,
{16}51,2,3,4,1/5-1[8:1],,8,,5/7-2[8:1]*-4[8:1],,,,7,,,,
{8}35,6,8/7-3[8:1],1,7/2-5[8:1],,26,,
{8}3/8-4[8:1],,8/2>7[8:1],1,26,,8,8,
{16}16,2,3,4,1/5-1[8:1],,8,,57,,6,,25,,3,,
{16}48,7,6,5,8/4-8[8:1],,1,,4/2-7[8:1]*-5[8:1],,,,2,,,,
{8}46,3,1/2-5[8:1],8,2/7-3[8:1],6,37,4,
{4}2b-5[8:1]/6b-1[8:1],2b-7[8:1]/6b-3[8:1],2b/6b,1b/5b,
{16}4x/8x-4[8:1],7,6,5,4,,,,3x/7x-3[8:1],6,5,4,3,,,,
{16}2x/6x-2[8:1],5,4,3,2,,,,3bx-8b[8:1]/7bx-4b[8:1],,,,37,,,,
{16}5x/1x-5[8:1],2,3,4,5,,,,6x/2x-6 [8:1],3,4,5,6,,,,
{16}7x/3x-7[8:1],4,5,6,7,,,,8bx-4b[8:1]/2bx-6b[8:1],,1,,28,,,,
{16}57,,5h[8:1]/7h[8:1],,,,6-4-1[4:1],6,6h[4:1],,,,,,,,
{16}12,,1h[8:1]/2h[8:1],,,,1-7-4[4:1],1,1h[4:1],,,,,,,,
{16}35,,5h[8:1]/3h[8:1],,,,4-2-7[4:1],4,4h[4:1],,,,,,,,
{16}68,,6h[8:1]/8h[8:1],,,,7-5-2[4:1],7,7h[4:1],,,,,,,,
{1}1s5[4:6],
{1}6-1[4:2],
{12}3bh[12:3]/6bh[12:3],,,,45,45,5/4-8[8:1],,3,4,3,,
{12}1/8-5[6:1],,7,8,7,,6/5-1[6:1],,4,5,4,,
{12}2bh[12:3]/8bh[12:3],,,,45,45,4/5-8[6:1],,6,5,6,,
{24}1/8-4[6:1],,,,7,,8,,7,,,,2h[12:1]/6h[12:1],,,,4h[12:1]/8h[12:1],,,,37,26,15,48,

{4}3/7>6>3[16:51],{64},,,,,,,,,,,Ch[64:133],,,,,
{1},,,E

Re:MASTER


名前:
コメント:

タグ:

+ タグ編集
  • タグ:
最終更新:2026年08月10日 23:58