アットウィキロゴ

約束

アーティスト はるまきごはん

BPM BASIC ADVANCED EXPERT MASTER Re:MASTER
136 1 6 8 12 -

EXPERT MASTER Re:MASTER
譜面制作者 はっぴー シチミヘルツ -

BASIC


ADVANCED


EXPERT

(136)
{1}6h[2:1],
{4}E6,E5,E4,,
{1}3h[2:1],
{1}5h[2:1],
{1}3h[2:1],
{4}E4,E5,E6,,
{1}6h[2:1],
{1}4h[2:1]/5h[2:1],
{4}6,6,8,8,
{4}2,2,4,4,
{4}3,3,4,4,
{4}5,5,4,4,
{4}5,5<8[8:3],,,
{4}1,1>4[8:3],,,
{1}6h[4:7],
{1}3h[4:3],
{1}7<4[8:3],
{1}2>5[8:3],
{1}5-8[8:3]*-2[8:3],
{1}1-5[8:3],
{4}8,8,6,5,
{4}4,4,2,1,
{4}8,8,6,5,
{4}4,4,2/6,3/5,
{8},1x,1xh[4:1],,8<1[4:3],,,,
{1},
{2}2>5[4:1],6h[2:1],
{4}8h[4:1],1h[4:1],3h[4:1],5,
{2}7<4[4:1],3h[2:1],
{4}1h[4:1],8h[4:1],6h[4:1],4,
{2}2-5[4:1],6-1[4:1],
{4}2>5[4:1],,8,8,
{4}2h[4:1],4h[4:1],5h[4:1],7h[4:1],
{1}1p8[2:1],
{2}7<4[4:1],3h[2:1],
{4}1h[4:1],8h[4:1],6h[4:1],4,
{2}2>5[4:1],6h[2:1],
{4}8h[4:1],1h[4:1],3h[4:1],5,
{2}6-3[4:1],2-7[4:1],
{4}6>3[4:1],,1,1,
{4}7h[4:1],5h[4:1],4h[4:1],{8}1,1,
{8},,,5,5<4[4:5],,,,
{1},
{4},,,1b,
{16}2/4,,,3/5,,,4x/6x,,4x/6x,,,3/5,,,2x/4x,,
{16}2x/4x,,,3/5,,,{8}4x/6x,4x/6xh[4:1],,5,,
{16}5/7,,,4/6,,,3x/5x,,3x/5x,,,4/6,,,5x/7x,,
{16}5x/7x,,,4/6,,,{8}3x/5x,3xh[2:1]/5xh[2:1],,,,
{2},C/E4,
{2},C/E5,
{2},C/E6,
{2},C/E7,
{2},C/E8,
{2},E1/Ch[2:1],
{1},
{1},
{8}1x/8x,,2x/7x,,3,3,4,,
{8}6,6,5,,4/6,,3/7,,
{8}2/8,,,7,7h[2:1],,5,,
{4}2h[2:1],4,8,3/7,
{2}2-6[4:1],7-3[4:1],
{4}1-5[4:1],,8x,8,
{4}6,5,4,3qq5[8:5],
{1},
{2}6<1[4:1],2h[2:1],
{4}4h[4:1],5h[4:1],7h[4:1],1,
{2}3>8[4:1],7h[2:1],
{4}5h[4:1],4h[4:1],2h[4:1],7,
{2}6-1[4:1],2-5[4:1],
{4}8,8,1/7,1/7,
{4}6h[4:1],8h[4:1],1h[4:1],3h[4:1],
{1}5p4[2:1],
{2}3>8[4:1],7h[2:1],
{4}5h[4:1],4h[4:1],2h[4:1],7h[4:1],
{8}1b,,,8,8-4[4:1],,,,
{2}1-5[4:1],8h[2:1],
{4}5,5,4/6,3/7,
{4}4,4,3/5,2/6,
{4}7h[4:1],5h[4:1],4h[4:1],2>1[4:3],
{1},
{2},C/E1,
{2},C/E3,
{2},C/E5,
{2},C/E7,
{2},C/E1,
{4},,,1x/8x,
{1}2b/7b,
E

MASTER

(136)
{4}4h[2:1]/6h[2:5],,,,E7,E6,E5,E4,
{1}2h[2:3],4h[2:1],
{4}5h[2:1]/3h[4:7],,,,E3,E4,E5,E6,
{4}7h[4:1],5h[4:1],4h[4:1],2<3[2:1],8,,7,6,5/4,3/5pp4[2:1],2xh[4:1],,
{4}2,2-4[8:1],,,7,7-5[8:1],,,3,3-5[8:1]/6-4[8:1],,,8/1,
{8}2-5[8:1],2,6,,7-4[8:1],7,3,,2,2,6,3,5,4,
{2}5pp4[8:7]/4qq5[8:7],,,
{8}6,5,7h[8:15],,Cf,{4},,,{16}E7,E6,E5,,
{8},,,,5,5h[8:15],,Cf,{4},,,{16}E5,E6,E7,,
{8},,,,7,7,6,6/5,,4/7,,6,5,
{4}4/7,6/3,2/5,
{8}3,4,5/2,,3/4,,2,2,5,5,4,4,
{4}7-5[8:1],2-4[8:1],,7/3,
{8},1/2,8/3,,
{16}2h[16:3],,,4h[16:3],,,
{8}5,3bpp6[16:9]/7bpp2[16:9],,{4},,,
{8}7/3-7[8:1],,5-8[8:1],5,2-6[8:1],,1<3[16:5],1,5,,1-5[8:1],1,
{4}8,7/3,6-2[8:1],
{8}4-1[8:1],4,7-3[8:1],,8>6[16:5],8,5,,8-4[8:1],8,
{4}1,6/2,7-2[8:1],
{8}4,3,3-6[8:1],,8,7,
{4}7-2[8:1],7/3-6[8:1],3/8,
{8}8/7,1/6,2/5,3,8/4,3/7-3[8:1],,2,1-4[8:1]*-6[8:1],1,1x,,7/3,7b/3b,,4/5,
{16}7,8,7,8,7-3[8:1],,,,
{8}4-1[8:1],4,6-2[8:1],,8xV24[4:1],8x,4-6[8:1],,8-4[8:1],8,
{4}2,1/6,2-6[8:1],
{8}5-8[8:1],5,3-7[8:1],,1V75[4:1],1,5-3[8:1],,1-5[8:1],1,8,,7/3,,
{8}5-8[8:1],,,,4-1[8:1]*-1[8:1],,,,
{4}5<8[8:1],1-4[8:1]*-6[8:1],1x,
{8}7/3,6,5/2,3,4/8,3/7-3[8:1],,1<3[8:3],1,5,,,,7,7-3[8:1],,5>5[2:3]*<5[2:3],5,
{4},,,,,,,{8}8b,,
{16}2h[16:3],,,3h[16:3],,,4,,7h[16:3],,,6h[16:3],,,5,,
{16}1h[16:3],,,3h[16:3],,,4,,8h[16:3],,,6h[16:3],,,5,,
{16}3h[16:3],,,2h[16:3],,,1,,6h[16:3],,,7h[16:3],,,8,,
{16}4h[16:3],,,3h[16:3],,,2,,8,1,8,1,8b,,,,
{2}1>8[4:21],E1,,E8,,E7,,E6,,E5,,Ch[2:1],E1,,,,
{8}1b/8b,,2/4,3,8/4,7,6/1,2,3/4,5,6/4,7,8/1,2,5/3v8[8:1],6,7h[4:1],,,
{16}5,6,5,,{8}4/7,2,3/5,6,4q5[8:3],4,Cf,,,,,
{16}7h[16:3],,,5,6,,7/4,,2h[16:3],,,4,3,,2/5,,8h[16:3],,,5,7,,6/4,,
{8}5/3-7[8:1],,8,,2/5,3/6,4/7,5/8h[4:1],,1,8/2,7/3,6/4,3,2/5,
{16}1,8,2,7,3,8,1b,,,,
{8}6/2-6[8:1],,8-5[8:1],8,3-7[8:1],,4<2[16:5],4,8,,4-1[8:1],4,
{4}5,2/6,7-3[8:1],
{8}1-4[8:1],1,6-2[8:1],,5>7[16:5],5,8,,5-8[8:1],5,
{4}4,7b/3b,2-7[8:1],
{8}5,6,6-3[8:1],,1,2,
{4}2-7[8:1],2/6-3[8:1],6/1,
{8}1/2,8/3,7/4,6,1/5,6/2-6[8:1],,7,8-5[8:1]*-3[8:1],8,8x,,2/6,6b/2b,,4/5,
{16}2,1,2,1,3-7[8:1],,,,
{8}5-8[8:1],5,4,,1/2,8/1,
{4}7/8-4[8:1],8-6[8:1]/1-6[8:1],1-3[8:1]/8-3[8:1],8-4[8:1]/1-5[8:1],8b/1b,
{8}2/7,3,4/8,7,6/1<3[8:3],2,3,,2,1,1-5[8:1],,1/8,,7h[4:1]/4h[4:1],,,
{8}2/5,5h[4:1]/2h[4:1],,,7/4,
{4}4/7-2[8:1],1-4[8:1]*q5[8:1],1x,
{8}3/7,6,5/2,3,8/4,3/7-3[8:1],,1>8[8:7],1,Cf,
{4},,,,B6,C,2h[16:1],,B7,C,3h[16:1],,B8,C,
{2}4h[16:1],8<1[8:17],5h[16:1],,6h[16:1],,
{4}7h[16:1],8b,
E

Re:MASTER


名前:
コメント:

タグ:

+ タグ編集
  • タグ:
最終更新:2026年07月11日 14:10