アットウィキロゴ

アゲアゲアゲイン

アーティスト Mitchie M

BPM EASY BASIC ADVANCED EXPERT MASTER Re:MASTER
175 2 4 8+ 10 12 -

EXPERT MASTER Re:MASTER
譜面制作者 某S氏 はっぴー -

EASY


BASIC


ADVANCED


EXPERT


MASTER

(175)
{8}17,,28,,6,5,,34,,,25,,8^3[8:1],8,,,
82,,71,,3,4,,65,,,74,,1^6[8:1],1,,,
25,,47,,3,4,5,6,,57,68,,1,2,34,,
{2}2-8[8:1]/6-8[8:1],4-8[8:1],7-1[8:1]/3-1[8:1],5-1[8:1],

{8}27,,18,,26,,,34,,56,,4,3,2,1,8,
,6-1[8:1],6,,2-5[8:1],2,,6-1[8:1],,,2-5[8:1],,6-1[8:1],6,,,
27,,18,,37,,,65,,43,,5,6,7,8,1,
,3-8[8:1],3,,7-4[8:1],7,,1b,{4},,4h[4:1],5h[4:1],

{8}6>2[8:3],,,8,8,,12,,3<7[8:3],,,1,1,,87,,
6>2[8:3],,,8,8,,12,,3<7[8:3],,,1,1,,87,,
6q3[8:3],,,4,4,,17,,3p6[8:3],,,5,5,,82,,
{16}1h[16:3],,,3h[16:3],,,4,,8h[16:3],,,6h[16:3],,,5,,{4}2b/7b,,78,12,

{8},8,7^2[8:1],4,{2}3p6[8:1],{8},1,2^7[8:1],5,{2}6q3[8:1],
{8},7,5,4,2,3,1,8^5[8:1],,2,3,4<3[8:3],{2},
{8},1,8v5[8:1],7,{2}6v3[8:1],{8},8,1v4[8:1],2,{2}3v6[8:1],
{8},6,5,4,3,2q7[4:1],{2},{8},3,6,4,5,{4}4-2[8:1],
5-7[8:1],4-1[8:1],5-8[8:1],,,{8},1b,1b,1b,

7h[4:1],,6,{4}6-1[8:1],4-8[8:1],5-1[8:1],3-8[8:1],{8}1,2,,8b,8b,
1h[4:1],,2,{4}2-5[8:1],8-3[8:1],6-1[8:1],4-7[8:1],,{8}1,28,,
2h[4:1],,3,{4}3-8[8:1],5-1[8:1],4-8[8:1],6-1[8:1],7p4[8:3],,,
3h[4:1],7h[4:1],2h[4:1],8h[2:1],1h[4:1],{8},18,2b/7b,,,

7h[4:1],,6,{4}6-1[8:1],4-8[8:1],5-1[8:1],3-8[8:1],{8}1,2,,1b,1b,
8h[4:1],,7,{4}7-4[8:1],1-6[8:1],3-8[8:1],5-2[8:1],,{8}8,17,,
2h[4:1],,3,{4}3-8[8:1],5-1[8:1],4-8[8:1],6-1[8:1],{8}8,7,,
3,4,5,,7,8,1,,,1h[4:1]/8h[4:1],,,27,,1,7,5,3,1,

{4}8,7,6,5,4,3,2,1,{8}1,2,3,4,5,6,7,8,
{16}8,7,6,5,4,3,2,1,8,7,6,5,{8}43,,

78,6,1,5,34,2,{4}4-8[8:1],3-1[8:1],6-8[8:1],5-1[8:1],,
{8}12,3,8,4,56,7,{4}8-2[8:1],3-7[8:1],6-4[8:1],,,
{16}38,,2,1,{8}2,8,7,6,56,,{16}61,,7,8,{8}7,1,2,3,{4}43,
{8}4v6[8:1],,,5v3[8:1],,,4v7[8:1],,,5v2[8:1],,,{2}4-8[8:1],
{1}2b/6b,,,,E

Re:MASTER


  • MASTER譜面を追加しました。修正等ありましたらよろしくお願いします。 -- けもがみ (2026-03-28 21:41:18)
名前:
コメント:

タグ:

+ タグ編集
  • タグ:
最終更新:2026年10月03日 22:21