BASIC
ADVANCED
EXPERT
MASTER
(120){2},4b-1[8:1]/5b-8[8:1],
{8}3/6^1[16:3],,2,2,3-8[8:1],,1,,57,46,{16}3,4,,4,2,,14,,2,2,{8}5,
3^8[16:3]/7,,5,,6-1[8:1],6,8,,{16}3,4,,4,5,,5,6,,1,2,3,4,5,6,7,
{8}8-4[8:1],,2,2,7^2[8:1],,4,,35,{16}6,4,,57,,57,,4,5,,3,3,5,,
4/6-2[8:1],,,,8,,,,1,7,1-5[8:1],7,{8}1,8b,,12,34,56,{4}1-5[8:1]/8-4[8:1],1b/8b,
3/6h[4:3],E5/B5,,E5/B5,{16}3h[16:3],,,4h[16:3],,,5h[8:3],,,,4,,{4}4,
4/6h[4:3],E5/B5,,E5/B5,{16}3h[16:3],,,4h[16:3],,,5h[4:1],,,,4,,{4}45,
3h[4:3]/5,E5/B4,,E5/B4,{16}6h[16:3],,,5h[16:3],,,4h[8:3],,,,5,,{4}5,
3h[4:3]/5,E5/B4,,E5/B4,26,,{16},,5,4,35,,,,
4/6-4[8:1],,3,,2,,1,1,4,,2,,35,,4,,4-6[8:1]/6,,7,,8,,1,1,{8}5,8,47,6,
2/5-7[8:1],5,1,1,4-2[8:1],4,8,8,7^5[8:1],7,2^4[8:1],2,7,7,26,,
3-5[8:1]/5,6,7,{16}8,8,5,,7,,46,,5,,3/5-3[8:1],,2,,1,,8,8,{8}4,1,26,3,
4-2[8:1]/8-6[8:1],48,,,1-5[8:1]/5,15,{4},6h[8:1],6h[8:1],6h[8:1],1>8[4:3]/8b,
C,,,2>7[4:3],C,,,3^6[2:1],
C,,,2>7[4:3],C,,,8,
1h[4:3]/2,4,6,8,7/8h[4:3],5,3,1,
{8}78,6,45,3,24,1,78,46,1b/Cf,,,,,18,18,,
{16}7p3[8:1],8,,8,7,,1,,2q6[8:1],8,,8,{8}2,1,8,6,2/4h[8:3],8,7^4[8:1],8h[8:3],,,
5h[8:3],,6-1[8:1],2h[8:3],,,8,7,1/5h[8:3],,6<4[4:1],2h[8:3],,,,,
{16}7p3[8:1],8,,8,7,,1,,2q6[8:1],8,,8,{8}2,1,8,6,2/4h[8:3],8,7^4[8:1],8h[8:3],,,
7,{16}7,8,,8,7,,3,4,,4,3-6[8:1],,5,,7,,8,,8,,4,6,3,5,,,36,,45,,
1-5[8:1]/8-4[8:1],,,,1b/8b,,,,6q2[8:1],4,,4,{8}6,5,4,2,1h[8:3]/6,4,3^8[8:1],4h[8:3],,,
1h[8:3],,2-5[8:1],8h[8:3],,,3,2,1h[8:3]/5,,2>7[16:3],8h[8:3],,,,,
{16}6q2[8:1],5,,5,6,,4,,3p7[8:1],5,,5,{8}3,4,5,7,3/8h[8:3],5,6^1[8:1],5h[8:3],,,
8V24[4:1],,4V68[4:1],,1xh[8:1],{16},1xh[8:1],{8},1b,,18,2-5[8:1]/7-4[8:1],36,,,2b/7b,,
35,{16}6,5,7,,7,5,6,,3,4,2,,2,4,3,,6,5,7,,7,,4,6,3,5,,1,8,,
25,,3,4,,4,{8}3,2h[8:1]/5h[8:1],,4/7^5[8:1],7,2^4[8:1],2,8^6[8:1],8,1^3[8:1],1,8b,,
46,{16}3,4,2,,2,4,3,,6,5,7,,7,5,6,,3,4,2,,2,,5,3,6,4,,8,1,,
47,,6,5,,5,{8}6,47,2/5<4[8:3],1,1b,,,,,36,36,{16}4,4,5,5,
{2}Cfh[2:1],8b-3[8:1]*-5[8:1],
{16}7^4[8:1],8,,8,7,,1,,2^5[8:1],1,,1,{8}2,7,8,6,2/4h[8:3],8,7-3[8:1],8h[8:3],,,
5h[8:3],,6pp1[4:1],4,4,,5x,5x,4h[8:3]/8,,3qq8[4:1],5,5,,,,
{16}2^5[8:1],1,,1,2,,8,,7^4[8:1],8,,8,{8}7,2,1,3,5h[8:3]/7,1,2-6[8:1],1h[8:3],,,
3h[16:3],{16}5,5h[16:3],,7,7h[16:3],,1,1h[16:3],,3,3-6[8:1],,4,,7,,8,,8,,3,6,4,5,,,27,,45,,
1-4[8:1]/8-5[8:1],,,,1b/8b,,,,6^1[8:1],4,,4,{8}6,5,4,2,6/8h[8:3],4,3-7[8:1],4h[8:3],,,
1h[8:3],,2pp5[4:1],8,8,,1x,1x,4/8h[8:3],,7qq4[4:1],1,1,,,,
2^5[8:1]/7,,6^1[8:1],,2h[16:3],{16},3h[16:3],,,4,,4,,7,8,,2,1,2,,7,5,6,3,4,2,5,
1V75[4:1],,,,5V31[4:1],,,,8xh[8:1],,,8xh[8:1],{8},8b,,12,34,56,78,1,2-7[8:1]/6-3[8:1],,
{1}2b/6b,,,,E
Re:MASTER
最終更新:2026年04月11日 19:39