アットウィキロゴ

共感覚おばけ

アーティスト ササノマリイ

BPM EASY BASIC ADVANCED EXPERT MASTER Re:MASTER
184 2 5 7+ 10+ 13 -

EXPERT MASTER Re:MASTER
譜面制作者 某S氏 ロシェ@ペンギン -

EASY


BASIC


ADVANCED


EXPERT


MASTER

(184)
{8}5,4,3h[4:1],5,4^6[8:1],,3,,5,4,3h[4:1],5,4^6[8:1],,3,,
5,4,3h[4:1],5,4^6[8:1],,3,,5,4,3h[4:1],5,4,3,2,3,
4,5,6h[4:1],4,5^3[8:1],,6,,4,5,6h[4:1],4,5^3[8:1],,6,,
4,5,6h[4:1],4,5^3[8:1],,6,,4,5,6,64,,5,5,5,

2b/4b,,8-4[8:1],8,2-5[8:1],,8-4[8:1],8,{4}2-5[8:1],8z4[4:1],,,
{8}1/4-6[8:1],,2,,1/4-6[8:1],1,2,,1/4-6[8:1],,3,,1/4-6[8:1],1,3,,
75,,1-5[8:1],1,7-4[8:1],,1-5[8:1],1,7-4[8:1],,1-5[8:1],,7,8,1,2,
3-8[8:1]/7,,5,5,3-8[8:1]/7,,5,5,37,2,1,8,4,4,5,5,

{4}4h[4:3],5,6,7,{2}8-4[8:1],1-3[8:1]/7-5[8:1],
{4}5h[4:3],4,3,2,{2}2-7[8:1]/3-6[8:1],5-1[8:1],
{1}4h[4:7]/8p6[2:1],5p3[2:1],2p8[2:1]/5h[4:7],6p4[2:1],
{4}6h[4:3],4,3,2,{2}1-4[8:1]/7h[4:1],2h[4:1]/5-8[8:1],
{4}3h[4:3],5,6,7,48,26,1-4[8:1]/5-8[8:1],,
{1}1h[4:7]/3qq6[2:1],8qq3[2:1],4h[1:1]/6qq1[2:1],
{4}1>5[4:1],5<5[2:1],,,

{8}1b,,45,6,{2}7/8-3[8:1],{8}1,8,7,6,{2}4/5-8[8:1],
{8}13,4,5,68,5,4,1h[4:1]/3,,2,1,48,37,{2}2-7[8:1]/6h[4:1],
{8}5/8-4[8:1],,6,7,{2}8-4[8:1]/3-1[8:1],{8}5/8-4[8:1],,6,7,{2}8-4[8:1]/3-1[8:1],
{8}5/8-4[8:1],,6,7,{2}8-4[8:1]/3-1[8:1],{8}5/8-4[8:1],,6,7,8,1,2b/7b,,
18,,2,1-4[8:1],{2}8-5[8:1],{8}4,5,{2}3^6[8:1]/6-3[8:1],{8}18,,
86,5,4,31,4,5,8h[4:1]/6,,7-5[8:1],7,3-1[8:1],3,8-4[8:1],8,,,
1/4-8[8:1],,2,3,{2}4-8[8:1]/7-5[8:1],{8}1/4-8[8:1],,2,3,{2}4-8[8:1]/7-5[8:1],
{8}1/4-8[8:1],,2,3,{2}4-8[8:1]/7-5[8:1],{2}1h[4:1]/4-8[8:1],3h[4:1]/6h[4:1],

{8}1b/7b,,3-8[8:1],3,7-2[8:1],,3-8[8:1],3,{4}7-2[8:1],3s7[4:1],,,
{8}6-4[8:1]/8,,2,,6-4[8:1]/8,8,2,,6-4[8:1]/8,,3,,6-4[8:1]/8,8,3,,
17,,6-1[8:1],6,2-7[8:1],,6-1[8:1],6,2-7[8:1],,6-1[8:1],,5,4,3,2,
1/8-5[8:1],,3-6[8:1],3,8-5[8:1],,3-6[8:1],3,7,8,1,2,{2}3v1[8:1]/6v8[8:1],

{4}3h[2:1]/7s3[4:5],,,4,4h[4:11],,,5,6,7,8,1s5[4:3],{1},
{4}6h[2:1]/2z6[4:5],,,8,8h[1:1],,,7,6,5v2[4:3]*v8[4:3],,,{1},
{4}4h[1:1]/7h[8:1],7h[8:1],6h[8:1],6h[8:1],{8}5,5,4/6h[4:1],,7,6,45,,
{4}5h[1:1]/2h[8:1],2h[8:1],3h[8:1],3h[8:1],{8}4,4,5/3V51[8:3],,{2}8-6[8:1],
{4}5h[1:1]/2h[8:1],3h[8:1],4h[8:1],6h[8:1],{8}7,7,6/8h[4:1],,5,5,4h[4:1]/6,,
5,5,4,4,36,{16}7,8,7,,2,1,{4}2-6[8:1],7-3[8:1],1w5[8:1],,

{8}2b/8b,,45,6,{2}7-4[8:1]/8-3[8:1],{8}1,8,7,6,{2}4-1[8:1]/5-8[8:1],
{8}1^6[8:1]/2,3,4,5^2[8:1],6,7,8h[4:1],,1,8,47,36,{2}2-7[8:1]/5h[4:1],
{8}1/5-1[8:1],,2,3,{2}4v1[8:1]/8v5[8:1],{8}2/6-2[8:1],,3,4,{2}5v2[8:1]/1v6[8:1],
{8}3/5-1[8:1],,2,3,{2}4v1[8:1]/8v5[8:1],{8}2/6-2[8:1],,3,4,5,6,2b/7b,,
81,,7,8-5[8:1],{2}1-4[8:1],{8}5,4,{2}3^6[8:1]/6-3[8:1],{8}81,,
8^3[8:1]/7,6,5,4^7[8:1],3,2,1h[4:1],,8-4[8:1],8,1-3[8:1],1,5-7[8:1],5,,,
8/4-8[8:1],,7,6,{2}5v8[8:1]/1v4[8:1],{8}7/3-7[8:1],,6,5,{2}4v7[8:1]/8v3[8:1],
{8}6/4-8[8:1],,7,6,{2}5v8[8:1]/1v4[8:1],{2}1h[4:1]/4-8[8:1],3h[4:1]/6h[4:1],

{8}5b/7b,,1q5[8:1],1,7p3[8:1],,1q5[8:1],1,{4}7p3[8:1],1s5[4:1],,,
{8}3/7-1[8:1],,5,,3/7-1[8:1],3,5,,2/7-1[8:1],,5,,2/7-1[8:1],2,5,,
42,,8p4[8:1],8,2q6[8:1],,8p4[8:1],8,2q6[8:1],,8p4[8:1],,2,1,8,7,
2/6-1[8:1],,4,4,2/6-1[8:1],,4,4,35,35,46,46,{4}1w5[8:1],1,{1}2b/8b,,,,E

Re:MASTER


  • MASTER譜面を追加しました。修正等ありましたらよろしくお願いします。 -- けもがみ (2026-06-08 20:21:43)
名前:
コメント:

タグ:

+ タグ編集
  • タグ:
最終更新:2026年10月03日 22:33