BASIC
ADVANCED
EXPERT
MASTER
(190)
{1},
{2}3^5[4:1],6,
{2}6^4[4:1],3,
{2}3^5[4:1],6,
{4}5,4,{2}3,
{2}1^4[4:1],6,
{2}8^5[4:1],3,
{2}1-3[4:1],8-6[4:1],
{2}1-5[4:1],8-4[4:1],
{4}1h[2:1],E3,8h[2:1],E7,
{4}2h[2:1],E4,7h[2:1],E6,
{12}2x,,2,4x,,4,5x,,5,7x,,7,
{12}2x,3,4,5x,6,7,{4}8x-4[8:1],1b/8b,
{4}35,{12}18,,6,5,,8,{4}1-3[8:1],
{4}1-7[8:1],1-5[8:1],1,6,
{4}35,{12}18,,5,6,,1,8,,3,
{4}4-8[8:1],1,5-1[8:1]/6,8b,
{4}34,{12}18,,6,5,,7,{4}8-2[8:1],
{4}8-6[8:1],8-4[8:1],8,{12}6,,1x/8xp4[8:1],
{12},,2,2,,1q5[8:1],1,,6,6,,7p3[8:1],
{12}7,,2,2,,1,1h[4:1],,8,{4}8b,
{4}56,34,{12}1,2,3,1^4[8:1],8,7,
{4}1^6[8:1],1-5[8:1],1,6,
{4}34,56,{6}7x/8x,1x/6x,2x/5x,
{4}3x/4-7[8:1],8,5-2[8:1]/6,1b,
{4}2x/8x,34,{12}5,6,7,5^8[8:1],4,3,
{4}5^2[8:1],5-1[8:1],5,{12}2,,28,
{12},,1V35[8:1],1,,7,7,,8V64[8:1],8,,3,
{12}3,,2V46[8:1],2,,7,7,,8-4[8:1]b,,,{24}3b>4[12:13]b/8b,Cf,
{1},
{2},{12},,1-5[8:1]b,,,1b/6bh[6:5],
{4},5x,5x,5x,
{12}7x,5x,6x,2x,4x,3x,{4}4x/5x,E5,
{12}7,,7,5,,5,{4}6,E3,
{12}2,,2,4,,4,{4}3,E7,
{12}7,,7,5,,5,{4}6,B3/E3,
{12}2,,2,4,,4,{4}3,45,
{12}6,,6,5,,5,{4}8,17,
{12}2,,2,4,,4,{4}3,35,
{2}6bx/B1/B2/E2,3bx/B7/B8/E8,
{2}1bx/B4/B5/E5,2bx/7bx,
{12}1bx/2bx,,2,3,,3,{4}4,56,
{12}7,,7,6,,6,{4}5,46,
{12}3,,3,2,,2,{4}1,17,
{12}6,,6,7,,7,{4}8,18,
{12}2,,2,3,,3,4,,4,5,,5,
{12}6,,6,7,,7,{4}8h[4:1],{12}7,,1x/6x,
{6}1x/6x,2x/5x,3x/4x,1x/2x,1x/8x,7x/8x,
{6}5x/6x,4x/5x,3x/4x,{2}1x/Cf,
{4}7h[6:1]/8h[6:1],5h[6:1]/6h[6:1],{6}3h[12:1]/4h[12:1],2h[12:1]/5h[12:1],1h[12:1]/6h[12:1],
{4}7-3[8:1]/8,1-5-1[4:1]b/7,{2}1,
{4}1xh[6:1]/2h[6:1],3h[6:1]/4h[6:1],{6}5h[12:1]/6h[12:1],4h[12:1]/7h[12:1],3h[12:1]/8h[12:1],
{4}1-6[8:1]/2,1-4[8:1],1,{12}8x,8x,8x,
{12}2x,2xh[6:1],,{4}1x,{6}3h[12:1]/5h[12:1],4h[12:1]/6h[12:1],5h[12:1]/7h[12:1],
{4}6-2[8:1]/8,6/8-4-8[4:1]b,{2}8,
{4}3h[6:1]/7h[6:1],3h[6:1]/7h[6:1],{6}2h[12:1]/6h[12:1],1h[12:1]/5h[12:1],4h[12:1]/8h[12:1],
{12}7,7,7,5,5,5,3,3,3,{4}1b,
{4}1h[6:1]/8h[6:1],5h[6:1]/6h[6:1],{6}2h[12:1]/4h[12:1],6h[12:1]/8h[12:1],1h[12:1]/2h[12:1],
{4}7-3[8:1]/8,1-5-1[4:1]b/7,{2}1,
{4}1xh[6:1]/8h[6:1],3h[6:1]/4h[6:1],{6}5h[12:1]/7h[12:1],1h[12:1]/3h[12:1],7h[12:1]/8h[12:1],
{4}1/2pp4[8:1],2/8qq6[8:1],28,{12}1x,1x,1x,
{12}7,7h[6:1],,{4}8,{6}4h[12:1]/6h[12:1],2h[12:1]/4h[12:1],6h[12:1]/7h[12:1],
{4}1/2-6[8:1],2/8-4-8[4:1]b,{2}8,
{2}4^1[8:1]/8x^5[8:1],1^4[8:1]/5^8[8:1],
{12}4x/8x,4x/8x,4x/8x,3x/7x,3x/7x,3x/7x,{2}2x-7[8:1]/6x-3[8:1],
{1}1bV35^8q3[4:13]/5b,
{1},
{1},
{1},
{1}3-6<2[4:3],
{1}6-3>7[4:3],
{2}2^4[4:1],7^5[4:1],
{2}4h[2:1],5,
{4}C/E2,C/E3,C/E4,C/E5,
{4}C/E8,C/E7,C/E6,C/E5,
{4}C/D2/E2,C/D3/E3,C/D4/E4,C/D5/E5,
{4}C/D7/E7,C/D6/E6,C/D5/E5,18,
{2}2h[2:7]/7h[4:1],6h[4:1],
{1}5V73-1[4:5],
{2},{4},1xV37-5[2:1],
{2},{4},1b/5b,
{4}3h[6:1]/4h[6:1],5h[6:1]/6h[6:1],{6}78,56,34,
{4}1-6[8:1]*-7[8:1]/2,1-3[8:1]*-4[8:1],1w5[8:1],1,
{4}5xh[6:1]/6xh[6:1],3h[6:1]/4h[6:1],{6}12,34,56,
{2}7-4[8:1]/8-3[8:1],{4}5p1[8:1]/6,8b,
{4}3h[6:1]/4h[6:1],1h[6:1]/8h[6:1],{6}56,78,12,
{4}3/4-2[8:1]*-6[8:1],4-8[8:1],4,{12}2,,17,
{12},,8<5[4:1],8,,4>8[4:1],,,8<8[12:7],,,Cf,
{2},{4},7b/8b,
{12}6-1[8:1],,6,2-5[8:1],,2,7-4[8:1],,7,3-8[8:1],,3,
{12}5-8[8:1],,5,1-4[8:1],,1,6,,7,{4}57,
{12}3-8[8:1],,3,7-4[8:1],,7,2-5[8:1],,2,6-1[8:1],,6,
{12}4-1[8:1],,4,8-5[8:1],,8,3-1[8:1],,3,{4}8b,
{12}7-3[8:1],,7,2-6[8:1],,2,8-4[8:1],,8,1-5[8:1],,1,
{12}6,,6,4,,37,,,2^5[8:1],1,,28,
{12},,7^4[8:1],8,,17,,,3^8[8:1],4,,35,
{12},,6^1[8:1],5,,46,,,2,{4}1b/2b,
{4}3-8[8:1]/4-8[8:1],34,5-1[8:1]/6-1[8:1],56,
{4}4-2[8:1]/5-7[8:1],4-8[8:1]/5-1[8:1],45,2bx/7bx,
{12}45,,2-4[8:1],1-5[8:1],,2,1,,8-4[8:1],7-5[8:1],,8,
{12}7,,1<2[3:1],8,,1,,,8,{12}8b,,7-5[8:1],
{12}8-4[8:1],,7,8,,1-5[8:1],2-4[8:1],,1,2,,8p4[8:1],
{12}1q5[8:1],,8>7[3:1],1,,8,,,1,1,,38,
{12},,7,8,,16,,,3,4,,25,
{12},,6,5,,47,,,18,,,2bh[2:3]/7b-3-8-4[4:5],
{1},
{2},{12},,35,,,1b-6-3-8<4[4:5]/7bh[2:3],
{1},
{2},{12},,26,,,4bV25V73V16[4:5]/8bh[2:3],
{1},
{2},{12},,47,,,2bh[6:5]/5b,
{4},6,7,8,
{12}1,3,5,8-4[8:1],6,4,{2}8b,
E
Re:MASTER
最終更新:2026年07月12日 15:04