アットウィキロゴ

さよならプリンセス

アーティスト Kai

BPM BASIC ADVANCED EXPERT MASTER Re:MASTER
195 4 7 10+ 12+ -

EXPERT MASTER Re:MASTER
譜面制作者 みそかつ侍 サファ太 -

BASIC


ADVANCED


EXPERT


MASTER

(195)
{1},

{4}4,{8}35,3h[8:3]/5,{4},4,
{4}5,{8}46,4/6h[8:3],{4},5,
{4}4,{8}35,3h[8:3]/5,{4},4,
{2}4h[4:1]/5h[4:1],{8}6,5,{4}47,
{4}1x,{8}3,3h[4:1],,5,{4}46,
{4}37,{8}6,6h[4:1],,4,{4}3h[8:7]/5,
{2}4h[8:3],{4},{8},34,
{8},45,{16}6x,5x,{8}6x,47,8x,{4}8bx,

{4}2-5[8:1],{8}6,7,{4}8-4[8:1],{8}3,3h[4:1],
{8},5,,7h[4:1],,5,5,6-3[8:1],
{8},3,2,1-5[8:1],,6,{4}6,
{4}5h[8:1]/7h[8:1],4h[8:1]/6h[8:1],{8}3,4,{4}5,
{4}2-5[8:1]/6,{8}8,7,{4}6-3[8:1],{8}1,1-4[8:1],
{8},5-8[8:1],,3h[4:1],,1,8,7h[4:1],
{8},8,1,2h[4:1],,4,4,3,
{8}5,6,4,3,8,8,{4}1>5[2:1],

{4}7x,7,7,{8}7,5,
{4}6,{8}6,4,{4}5,4/5<1[2:1],
{4}4,4,3,{8}2,2,
{2}2h[4:1]/4h[4:1],3h[4:1]/4h[4:1],
{4}5/6h[4:1],5,4/7h[4:1],4,
{2}3h[4:1]/8h[4:1],2h[4:1]/7h[4:1],
{2}1h[4:1]/6h[4:1],{4}2,{8}35,35,
{4}3-5[8:1]/5,6,78,12,

{4}3h[4:1],{8}5,4,{4}3/6-4[8:1],1,
{4}2h[4:1],{8}4,5,{4}3-5[8:1]/6,8,
{4}7h[4:1],{8}5,4,35,35,,2,
{8},8,{4}8^3[4:1]*^5[4:1],{2},
{4}3x/5x,{8}7,5,{4}6-4[8:1],2-8[8:1],
{4}7x,{8}8,5,{4}6-4[8:1],2-8[8:1],
{4}6x,16,7h[4:1],{8}5,5bx,
{8},46,46,,1x/8x,2x/7x,{4},

{8}2bx>6[8:3],,,8,{4}8,7,
{8}6h[8:3],,,5,{4}5,46,
{8}7<3[8:3],,,1,{4}1,2,
{8}3h[8:3],,,4,{4}4,{8}3,4,
{4}2h[4:1],{8}1,3/8^5[4:1],,5^2[4:1],,2^7[4:1],
{8},7^4[4:1],,4,,2h[4:1],,4h[4:1],
{8},3,{4}3,46,{8}37,3h[4:1]/7h[4:1],
{4},{8},17,{4}17,2-5[8:1]/6-1[8:1],

{4}2b/6b,48,{8}17,26,5,3>7[4:1],
{8},4,,5,,6V84[4:1],,4,
{8},3V15[4:1],,5,,7,7,5,
{8}46,3,12,8,17,6,45,3,
{4}2b/8b,{8}6-8[8:1],6,1,2,3,4x-8[8:1]/7x-5[8:1],
{8},47,,1x^4[8:1]/4x^7[8:1],,14,,8x,
{4}8x,4/6<2[4:1],2<6[4:1],{8}4,4,
{8},3x/5x,{4}3x/5x,{8}1,28,{4}3-8[8:1]/7-4[8:1],

{4}3b/7b,15,{8}2-6[8:1],2,6,7^2^7[2:1],
{8},5,,4,,3V15[4:1],,5,
{8},6V84[4:1],,4,,{8}1,1,2,
{8}3b/5b,6,7b/8b,1,2b-5[8:1]b,8b-4[8:1]b,2bx,8bx,
{4}1bx,{8}2,2,3,4,5,2^4[8:1]/6^8[8:1],
{8},26,,5w1[8:1],,,,2x/8x,
{4}2x/8x,4/6^1[8:1],3qq5[2:1]b,
{2},{8},8x,7,6h[4:1],,5,
{8}5,6,,46,,37,,8-4[8:1],
{8},4,,35,35,6x,{4}1x,

{2}2xh[1:2]/5x,{8},B3,,E5,
{2},B3/B4,
{2}5h[1:2],{8},E5,,E6,
{2},{4}B5/B6,B3/B4,
{2}2h[4:9],{8},E3,,E4,
{2},C,
{2}1h[4:1],{8}8,8^5[8:1],,Cf,
{8},1x,{4}1x,2-8[8:1]/8,6-4[8:1],

{4}4x,{8}2,4,{4}3-5[8:1],6,
{4}7h[4:1],{8}5,4,{4}3/6-4[8:1],1,
{4}2h[4:1],{8}4,4,35,35,,7,
{8},1,{4}1v4[4:1]*v6[4:1],{2},
{4}4x/6x,{8}7,5,{4}6-4[8:1],2-8[8:1],
{4}7x,{8}7,5,{4}6-3[8:1],3-6[8:1],
{4}2x,2,{8}35,35,,2b/6b,
{8},2,1,8,17,26,{4},

{8}2bxV46[8:3],,,8,{2}8h[4:1],
{8}7V53[8:3],,,1,{2}1h[4:1],
{8}2V46[8:3],,,8,{2}8h[4:1],
{4}57,56,45,{8}3,4,
{4}2h[4:1],{8}1,3/8^5[4:1],,5p1[4:1],,1p5[4:1],
{8},5^2[4:1],,2,,1h[4:1],,7h[4:1],
{8},5,{4}5,46,{8}3,3h[4:1],
{8},4,,12,12,8,{4}3bx-6[8:1]/7bx-2[8:1],

{4}3b/7b,48,{8}7-3[8:1],7,3,2-7[8:1],
{8},5-1[8:1],,4,,2/8<4[4:1],,3,
{8},1>5[4:1],,6,,7,7,5,
{8}46,3,12,8,{4}5h[8:1]/7h[8:1],3h[8:1]/4h[8:1],
{4}2b/5b,{8}1-5[8:1],1,{4}8,{8}5x/7x,5x>1[4:1]/7x,
{8},6,,4<8[4:1],,3,,2,
{4}2,3V17V13[2:1]/6,4,{8}5,5,
{8},46,{4}46,{8}8,17,{4}2^5[8:1]b/6^1[8:1]b,

{4}2b/6b,3x/7x,{8}8-4[8:1],1,2,3V17V13[2:1]b,
{8},4,,6,,5^8[8:1],5,3,
{8},2^5[8:1],2,1,,7,8,16,
{8}2b/5b,3,2b/8b,4,6b-1[8:1],2b-5[8:1],6bx,2bx,
{4}8b,{8}78,6,45,3,12,3x-1[8:1]/8x-4[8:1],
{8},38,,5x^8[8:1]/8x^3[8:1],,58,,8x,
{4}8x,3^8[8:1]/5,{2}6pp4[2:1]b,
{4},{8},2x,2x,2x,,3,

{8}4,5,6,5,4,3,3,3h[4:1]/4h[4:1],
{8},,,34,,45,,6,
{8}6,5,4,3,4,5,36,3-5[8:1]/6-4[8:1],
{8},,,36,{2}36,
E

Re:MASTER


名前:
コメント:

タグ:

+ タグ編集
  • タグ:
最終更新:2026年07月12日 18:56