アットウィキロゴ

Crazy Circle

アーティスト みきとP feat. FantasticYouth

BPM BASIC ADVANCED EXPERT MASTER Re:MASTER
145 2 6 9 12+ -

EXPERT MASTER Re:MASTER
譜面制作者 はっぴー Jack -

BASIC


ADVANCED


EXPERT


MASTER

(145){4}
3xh[1:1]/6x,B4/B5,,B4/B5,6h[1:1],B4/B5,,B4/B5,
3-8[8:1],7-4[8:1],{8}3,3h[4:1],,6,3/6-1[8:1],,2-5[8:1],,6,6h[4:1],,1x,
{4}16,26,36,46,35,36,37,38,
{8}2,2,1,1-5[8:1],8,8,7,7,46,35,46,35,2/6<3[4:1],37,2x/6x,,
,4,5,4,3-5[8:1],6,6,,

78,16,2/5h[16:3],{16},6h[16:3],,,7,,2,1,2,1,2h[16:3],,,3h[16:3],{8},4,45,2b,45,7b,
12,38,4h[16:3]/7,{16},3h[16:3],,,2,,7,8,7,8,7h[16:3],,,6h[16:3],{8},5,45,45,2b/7b,,

2,3,45,2,34,1,45,2,3h[8:1]/4h[8:1],{16},5h[8:1]/6h[8:1],{8},18,,1,8,7,
56,8,45,7,56,8,45,7,5h[8:1]/6h[8:1],{16},3^8[16:3]/4^7[16:3],{8},,,,1x/5x,2x/6x,
3x-8[8:1]/7x-4[8:1],,,,1v3[8:1]/5v7[8:1],15,,,26,26,1s5[4:1]/5,15,,,,,
34,2,56,7,34,1,56,8,3xh[8:1]/4xh[8:1],{16},5xh[8:1]/6xh[8:1],,,2xV48[4:1]/7xV51[4:1],,{4},,

2b/7b,E4/B3,E6/B6,{16}45,,1,8,2,7,2,7,3,6,3,6,4,,8,8,1x,,,,
5/6h[16:3],,,7>4[16:5],,,,,,,,,,,34,,3h[16:3]/4,,,2<5[16:5],,,,,,,,,,,2,,
2h[16:3],,,3h[16:3],,,4w8[8:1],,,,4x,,,,26,,2/6h[16:3],,,7h[16:3],,,8,,3h[16:3]/7,,,2h[16:3],,,1,,
26,,,3>6[4:1]/4p5[4:1],{8},,,,,37,3^8[8:1]/7^4[8:1],,3x/7x,{16},Cfh[16:17],{2},,,

{8}1-5[8:1],28,1x,,7-3[8:1],68,7x,,1w5[8:1],28,1b,,37,5,26,4,
37,8,26,1,37,5,2/6<3[4:1],4,1b,,,,12,3,45,6,
7h[16:3]/8,{16},6h[16:3],,,5,,34,,2,,,,2,,1/2h[16:3],,,3h[16:3],{8},4,4qq5[4:1]/5,,8,7,
6h[8:7],,5,4,3,2,1,8,1h[4:3]/7,6,5,4,3,2,8<1[4:1],,
,,8b,,2-6[8:1],13,2x,,8w4[8:1],17,8b,,26,4,37,5,
34,2,56,7,34,2V48[4:1],5-7[8:1],,,,1b,,2,4,5,7,
7xh[16:3],{16},8x,,,3,4,2xh[16:3],,,1x,,,6,5,{4}7x-4[8:1],1x-6[8:1]/7x,1x/8x-4[8:1],3x/8x,
{8}12,12,34,34,56,56,78,78,{16}1,8,1,8,2,7,3,6,4,5,4,,2x/7x,,1,1,

{8}8,27,E4/E6/B4/B5,27,18,27,E4/E6/B4/B5,27,18,27,E4/E6/B4/B5,27,18,27,E4/E6/B4/B5,,
56,56,E1/E3/B1/B2,,34,34,E1/E7/B7/B8,,45,45,E1/B1/B2/B7/B8,,36,36,1bpp4[8:3]/8bqq5[8:3],,
,,,,27,45,1b/8b,,13,68,24,57,26,37,Cf/E1/E5/B1/B4/B5/B8,,
56,7,34,2,56,8,34,1,5xh[8:1]/6xh[8:1],{16},3xh[8:1]/4xh[8:1],,,2xV48[4:1]/7xV51[4:1],,{4},,

2b/7b,E3/B2/B3,E7/B6/B7,{16}45,,2,8,3,7,3,7,4,6,4,6,5-1[8:1],,8,8,8x,,,,
37,,,5q4[4:1]/6<3[4:1],,,,,,,,,,,26,,26,,,3>6[4:1]/4p5[4:1],,,,,,,,,,,37,,
3/7h[16:3],,,6h[16:3],,,5w1[8:1],,,,5x,,,,37,,3h[16:3]/7,,,2h[16:3],,,1,,2/6h[16:3],,,7h[16:3],,,8,,
37,,,1pp4[16:5]/5pp8[16:5],{8},,,,,26,2-5[8:1]/6-1[8:1],,2x/6x,{16},4/8h[16:21],{4},,
B5,C,B1,{16}1,8,1,8,{8}1,1,28,28,37,37,46,46,
{16}5,4,6,3,7,2,8,1,{32}8x,7x,6x,5x,4x,3x,2x,1x,{8}8x,,

8-4[8:1],17,8x,,2-6[8:1],13,2x,,8w4[8:1],17,8b,,26,4,37,5,
26,1,37,8,26,4,3>6[4:1]/7,5,8b,,,,78,6,45,3,
1/2h[16:3],{16},3h[16:3],,,4,,56,,7,,,,7,,7h[16:3]/8,,,6h[16:3],{8},5,4/5pp4[4:1],,1,2,
3h[8:7],,4,5,6,7,8,1,2/8h[4:3],3,4,5,6,7,1>8[4:1],,
,,1b,,7-3[8:1],68,7x,,1w5[8:1],28,1b,,37,5,26,4,
56,7,34,2,56,7V51[4:1],5v8[8:1],,,,27,,46,35,46,35,
2xh[16:3],{16},1x,,,6,5,7xh[16:3],,,8x,,,3,4,{4}2x-5[8:1],2x/8x-3[8:1],1x-5[8:1]/8x,1x/8x<1[4:1],
,8b,{8}2-6[8:1],13,2x,,8-4[8:1],17,8x,,26,4,37,5,
34,1,56,8,34,1,2-5[8:1]/7-4[8:1],,2x/7x,,1b/8b,,47,35,46,25,
7xh[16:3],{16},8x,,,3,4,2xh[16:3],,,1x,,,6,5,{4}7x-3[8:1],2x-6[8:1]/7x,2x/8xw4[8:1],8x,
{8}26,26,15,15,48,15,26,37,{16}4,8,4,8,3,7,2,6,1,5,1,5,{32}1x,2x,3x,4x,5x,6x,7x,8x,

{4}1xh[4:7],7,6,5,B4,C,B8,5x-1[8:1],
8xh[4:7],2,3,4,B5,C,B1,1,
2h[2:3],B5/B6,,B3/B4,5,6,{8}7,2-6[8:1]/7,{4},
7h[4:3],B4/B5,,2,E4/E8,E3/E7,E2/E6,C/E1/E5,
{1},,E

Re:MASTER


名前:
コメント:

タグ:

+ タグ編集
  • タグ:
最終更新:2026年06月13日 17:04