アットウィキロゴ

新人類

アーティスト まらしぃ×じん×堀江晶太(kemu) feat.鏡音リン

BPM BASIC ADVANCED EXPERT MASTER Re:MASTER
144 3 6 10+ 13+ -

EXPERT MASTER Re:MASTER
譜面制作者 はっぴー Luxizhel -

BASIC


ADVANCED


EXPERT


MASTER

(144)
{2},
{8}2bh[4:1]/6bh[4:1],,,,35,3,35,3,35,3-5[8:1],,6h[8:1],,6,7,7,
{8}5,5,46,6^4[8:1],,4,3,2,4/2^4[8:1],5,6,7,5x/7x,6,4x/5x,3,
{8}3x/4x,3x/4x,2x/5x,,46,6,46,6,46,6-4[8:1],,3h[8:1],,3,2,2,
{8}4,4,35,2^4[8:1],,5,5,6,57,6,5,4,3x/4x,2,18,7,
{8}56,,2b/7b,{16}1,8,1,,6,5,6,,3,4,2,,6,5,7,,{8}8,28,1,24,3,
{8}46,7,18,{16}2,4,3,,6,5,7,,3,4,2,,{8}24,35,46,57,{16}7,5,6,4,5,,
{8}45,36,27,{16}5,4,6,,3,4,3,,6,5,7,,3,4,2,,{8}1,17,8,57,6,
{8}35,2,18,{16}7,5,6,,3,4,2,,7,5,6,,3,4,3,,25,,1,6,1,6,2,7,2,,
{8}1-5[8:1]/8-4[8:1],27,1b/8b,,3xh[16:3]/6xh[16:3],,,4x/7x^5[8:1],,4,4,,{16}3h[16:3],,,4,,,5/2^5[8:1],,
{8},6,6,,{16}7h[16:3],,,5,,,{8}4/6v4[8:1],,3,3,,{16}2h[16:3],,,4,,,3/5V74[16:3],,
{8},2,2,,{16}2xh[16:3],,,4x,,,{8}5x/1x^4[8:1],,6,6,,{16}6h[16:3],,,5,,,4/7^4[8:1],,
{8},3,3,,12,3,46,,78,6,35,,4/6-4[8:1],,6/2-5[8:1],,
{4}2/7-4[8:1],37,15,{12}2,2,2,3,3,3,4,4,4,45,,,{24}6x,5x,6x,5x,6x,5x,
{24}6x,5x,6x,5x,6x,5x,6x,5x,6x,,,,{12}4x/7x,,,3,5,4,6,4,5,3,6,4,7x,6x,5x,2x,3x,4x,
{12}8x,7x,6x,1x,2x,3x,4x/5x,,,7,7,7,6,6,6,5,5,5,45,,,{24}3x,4x,3x,4x,3x,4x,
{24}3x,4x,3x,4x,3x,4x,3x,4x,3x,,,,{12}2x/5x,,,6,5,6,47,,,3,4,3,25,,,{16}18,,2,2,
{16}7,7,1,1,1xb^3[8:1]/8bxq4[8:1],,,,{4}1p5[8:1]/8^6[8:1],1^3[8:1]/8q4[8:1],1p5[8:1]/8^6[8:1],18,{16}37,,2,1,3,,7,5,
{8}6-1[8:1],2-6[8:1],6,2,,58,7,46,35,{16}2,1,,7,8,,6/1-3[8:1]*-7[8:1],,,,1w5[8:1],,,,
{4}1,2bp6[8:1]/8b^6[8:1],2^4[8:1]/8q4[8:1],2p6[8:1]/8^6[8:1],2^4[8:1]/8q4[8:1],28,{16}26,,7,1,8,,2,4,
{16}3,,6,5,7,,{8}4/8-4[8:1],,8/2-6[8:1],3,12,8,{16}7,5,,2,4,,{8}1-5[8:1]/8-4[8:1],27,1^4[8:1]/8^5[8:1],,
{8}1b/8b,,,{16}3,4,3,,6,5,6,,3,4,2,,6,5,7-4[8:1],,{8}7,3-1[8:1],3,6p4[4:1],6,
{8}2,2,1,{16}2,4,3,,6,5,6,,3,4,2,,7,5,6,,45,,34,,2,4,3,5,4,6,
{8}5,56,47,{16}6,5,6,,3,4,3,,6,5,7,,3,4,2-5[8:1],,{8}2,6-8[8:1],6,3q5[4:1],3,
{8}7,7,8,{16}7,5,6,,2,4,3,,6,5,7,,{8}18,18,27,{16}3,5,3,5,4,6,4,,
{8}5p1[8:1]*q1[8:1],46,5,,37,{16}6,6,4,,6,6,5,,6,6,4,,6,6,3^6[8:1],,{8}3,7pp4[4:1],7,
{8},,3,{16}2,2,4,,2,2,6,,2,2,5,,2,2,7,,{8}16,2^5[8:1],2,6pp5[4:1],6,
{8},,4,{16}3,3,4,,3,3,2,,3,3,8,,3,3,6,,3,3,4-8[8:1],,{8}4,2-5[8:1],2,
{8}6,6,47,{16}6,6,5,,6,6,8,,6,6,2,,6,6,4,,{8}6,5/7-3[8:1],7,1-4[8:1]*-6[8:1],1,
{8}1,,3b/7b,,26,{16}1,1,4,3,,3,4,,1,1,4,3,,3,4,,1,1,4,3,,3,
{8}5,46,57,8h[4:1],,{16}2,8,3,7,3,7,4,6,4,6,3,5,3,5,2,6,2,6,1,7,8,,
{8}17,26,3b/5b,,57,{16}8,8,5,6,,6,5,,8,8,5,6,,6,5,,8,8,5,6,,6,
{8}4,35,24,1h[4:1],,{16}5,1,6,2,6,2,7,3,7,3,8,4,8,4,8x,7x,6x,5x,8x,7x,6x,5x,
{8}4x/8x,3x/7x,3x/7x,,56,6,56,6,56,6-4[8:1],,2h[8:1],,2,2,3,
{8}4,5,46,7h[4:1],,5,3h[4:1],4,6h[4:1],5,2h[4:1],4,6,57,8,17,
{8}26,3x/5x,3x/5x,,34,3,34,3,34,3-6[8:1],,7h[8:1],,7,8,8,
{8}57,46,35,{16}2h[16:3],,,4,3,4,3,,25,,6,5,6,5,6,,{8}47,8/B5/E6,,2/B3/E4,,
{32}1,8,7,6,5,4,3,2,1p5[8:1]/8^6[8:1],,,,,,,,{4}1b^3[8:1]/8bq4[8:1],1p5[8:1]/8^6[8:1],1^3[8:1]/8q4[8:1],18,{16}26,,7,1,6,2,5,3,
{8}4-7[8:1],1-5[8:1],4,1,,{16}6,5,7,,12,,46,,3x,2x/4x,,6x,5x/7x,,2/8^3[8:1]*^5[8:1],,,,8w4[8:1],,,,
{4}8,1xb^3[8:1]/7bxq3[8:1],1p5[8:1]/7^5[8:1],1^3[8:1]/7q3[8:1],1p5[8:1]/7^5[8:1],17,{16}47,,7,5,6,4,5,3,
{8}4-7[8:1],2-6[8:1],4,2,,{16}7,5,6,,34,,3h[8:1]/4h[8:1],,,2h[8:1]/3h[8:1],,,{8}12,8/2-6[8:1],1,2/8w4[8:1],1,
{8}8,,1x-3[8:1],,1x-7[8:1],{16}6,6,1x^3[8:1],5x,,5x,1x^7[8:1],,4,4,1x-3[8:1],5x,,5x,1x-7[8:1],,6,6,1x-5[8:1],5x,,5x,
{8}1x,6,47,8h[4:1],,{16}2,8,3,7,4,6,3,5,2,6,1,7,8,,{8}6,57,3,24,
{8}1,27,8x-2[8:1],,8x-6[8:1],{16}5,5,8x^2[8:1],4,,4,8x^6[8:1],,3,3,8x-2[8:1],4,,4,8x-6[8:1],,5,5,8x-4[8:1],4,,4,
{8}8x,3,25,1h[4:1],,{16}8,4,7>5[4:1],3,7,3,7x,,,,{8}2x-6[8:1],,2/7x-3[8:1],8,7/1-4[8:1]b*-6[8:1]b,8,
{8}1,,3/7-3[8:1],,7/2x-6[8:1],1,2/4-1[8:1]b*-7[8:1]b,5,4,,2b/6b,,
E


Re:MASTER


名前:
コメント:

タグ:

+ タグ編集
  • タグ:
最終更新:2026年09月04日 23:42