アットウィキロゴ

METEOR

アーティスト DIVELA feat.初音ミク

BPM BASIC ADVANCED EXPERT MASTER Re:MASTER
170 3 7 9 12 -

EXPERT MASTER Re:MASTER
譜面制作者 Jack 華火職人 -

BASIC


ADVANCED


EXPERT


MASTER

(170)

{8}4/5,4,3/6,,{16}5,4,,,{8}2b/7b,,3,3,4/2-5[8:1],,6,,3/8,,

{8}6,6,5/7-4[8:1],,3,,1/6,,3,3,4/2-5[8:1],,6,,2/7-2[8:1],,

{4}3-8[8:1],7-4[8:1],1,2b/6b,{8}7,7,1/6-1[8:1],,2,,4/7,,

{8}2,2,8/3-8[8:1],,7,,2/5,,7,7,1/6-1[8:1],,2,,2/7,,

{8}3/5,6,5/7,,{16}4,5,4,,{4}2b/7b,3/5,4/6,{8}7,7,1,1h[2:1],

{8},B8/E8,,B4/E4,,1/2,,2,2h[4:1],,1,1h[4:1],,3,,8h[2:1],

{8},B1/E2,,B5/E6,,7/8,,7,7h[4:1],,5,,3/4,,5,5h[2:1],

{8},B4/E4,,B1/E2,,5/6,,3,3h[4:1],,4,4h[4:1],,5pp8[8:5]*qq2[8:5],5,,

{4},,,8b,1>5[4:1],5<1[4:1],1>5[4:1],5-1[4:1],

{4}1<5[4:1],5>1[4:1],1,7b,8<4[4:1],4>8[4:1],8<4[4:1],4-8[4:1],

{4}8>4[4:1],4<8[4:1],8,2b,5/6,3/4,{8}2,2,8,8h[2:1],

{8},B2/E2,,B6/E6,,4/5,,3,3h[4:1],,2,2h[4:1],,1,1,8p5[8:3],

{4},,,2b/7b,{8}4/5h[2:1],,,B5,C,,,,

{8}5/4h[2:1],,,B4,C,,,,4/5h[2:1],,,B6,C,,,,

{8}5/4h[2:1],,,B3,C,,,,{4}E5,E6,E7,E8,

{4}E1,E2,E3,E4,Ch[1:1],,,,

{8},,,2,2,{16}3<8[16:5],4,2,,,,,,,,,,7,,7,,6>1[16:5],5,7,,,,

{8},,,1,2/4h[4:1],,8,8,6/2-6[8:1],,{4}5-8[8:1],1-5[8:1],8,

{8}3b/7b,3b/7b,,7,7,{16}6>1[16:5],5,7,,,,,,,,,,2,,2,,3<8[16:5],4,2,,,,

{8},,,1h[2:1],,8,7,6,2/5,,4/6,3^8[8:1]/5^8[8:1],,3/5,,7b/8b,

{8},3b/6b,,7,7,{16}6>1[16:5],5,7,,,,,,,,,,2,,2,,3<8[16:5],4,2,,,,

{8},,,8,7/5h[4:1],,1,1,3/7-3[8:1],,{4}4-1[8:1],8-4[8:1],1,

{8}2b/6b,2b/6b,,3/4,5/2h[8:3],,1,1,,7/8,,5/6,4/7h[8:3],,8,8h[4:1],

{8},1h[4:1],,3h[4:1],,6,6,8,,3,3,1,,2/7<2[4:1],2/7,1b,

{8},,,1/8,1/8,{16}7>4[16:5],8,6,,,,,,,,,,4/5,,4/5,,2<5[16:5],1,3,,,,

{8},,,4,1/2h[4:1],,7,7,6/3-7[8:1],,{4}8-5[8:1],4-8[8:1],5,

{8}2b/6b,2b/6b,,1/8,1/8,{16}2<5[16:5],1,3,,,,,,,,,,4/5,,4/5,,7>4[16:5],8,6,,,,

{8},,,4h[2:1],,5,6,7,3/8,,1/7,2p5[8:1]/8-5[8:1],,2/8,,4b/6b,

{8},2b/7b,,4/5,4-2[8:1]/5-1[8:1],,4b/5b,,1/2,2,3/8,3,4-8[8:1]/5-7[8:1],,4b/5b,,

{8}7/8,7,1/6,6,4h[4:1],,8,8,1x/7x,7,2x/6x,2,3x/5x,5,4x/5x,4,

{8}2b/7b,2b/7b,,5/6,4/7h[8:3],,8,8,,1/2,,3/4,5/2h[8:3],,1,1h[4:1],

{8},8h[4:1],,6h[4:1],,3,2,1/8,,6,7,1/8,,4,3,1/2,

{8},5,6,7/8,,4>5[8:7]/5<4[8:7],4/5,,{1},

{1}Cfh[4:3],{8}6,6,5/7-4[8:1],,3,,B1/B7/B8,,

{8}3,3,4/2-5[8:1],,6,,B1/B2/B8,,6,6,5/7-4[8:1],,3,,7/2-7[8:1],,

{4}6-1[8:1],2-5[8:1],8,3b/7b,{8}2,2,8/3-8[8:1],,7,,B3/B4/B5,,

{8}7,7,1/6-1[8:1],,2,,B4/B5/B6,,2,2,8/3-8[8:1],,7,,2/5,,

{8}5/6,5/6,3/4,,{16}5,4,5,4,5,4,5,,{1}2b>8[8:14]/7b<1[8:14],

{1},

E

Re:MASTER


名前:
コメント:

タグ:

+ タグ編集
  • タグ:
最終更新:2026年08月16日 17:53