BASIC
ADVANCED
EXPERT
(190)
{16}E3,,,,,,,E4,{2},
{2}E5,E6,E7,E6,E5,E4,E3,C,6>3[2:1],,
{4}4,4,5,5,3/4,5/6,4/5,2b/7b,6,5,4,3,2,1,2/8,3,4h[4:1],5,6h[4:1],5,3h[4:1],4,5h[4:1],4,3,4,5,6,7,8,1/7,6pp3[4:3],,,,,
{8}2xh[4:1]/4xh[4:1],,,2x/4x,,,
{4}3,,3,,3,6,5/6,3,3/4,6,5/7,3,2/4,
{8}5xh[4:1]/7xh[4:1],,,5x/7x,,,
{4}6,,6,,6,3,3/4,6,5/6,3,2/4,6,5/7,3,4,3,2/5,1,8,1,2/7,6-4[4:1],,2-8[8:1],,6-2[4:1],,4,4,6,5,6,4/7,8,1,8,2/7,3>8[4:1],,
{2}7<4[4:1],3>6[2:1],,5h[2:1],
{4}4,5/6,4h[2:1],,5,3/4,2,1/2,7,7/8,6,5,4,3x/6x,4h[2:1],,5,3/4,5h[2:1],,4,5/6,3/4,
{8}4/5,4/5,,3/6,,Cf,,1x/8x,1x/8x,,,,,,
{4}1b,2/8,3/7,6/4>1[4:1],5x,,1,3,5,4/6,3/7,2/8<5[4:1],1x,,3,3>8[4:1],4x,,6,6<1[4:1],5x,,2,1/2q6[4:1],8x,,7,8/7p3[4:1],1x,,3,2,1,8,1/7,6/2>5[4:1],,,6,7,8,1,2/8,3/7<4[4:1],,,3,4-1[4:1]/5-8[4:1],,,2/7,2/7,3x/4x,5x/6x,4x/5x,3x/6x,1bpp4[8:11]/8bqq5[8:11],,,,,,,,5,4/5,3,3/4,6,5/6,4,4/5,6,5,6,4/7,3,4,3,2/5,
{8}4xh[4:1]/7xh[4:1],,,4x/7x,,3x/6x,,2x/5xp4[8:5],{1},
{4}2,1,2,3x/8x,7,8,7,1x/6x,5,4,5,3x/6x,7,7x/8x,2,1x/2x,3bpp6[1:1],,,,,,5,4,
{8}3h[4:1]/5h[4:1],,,4h[4:1]/6h[4:1],,,2h[4:1]/5h[4:1],,,4x/7x>2[8:3],,,,,,,
{4}4h[2:1],,5,3/4,5h[2:1],,4,5/6,7,7/8,2,1/2,3,4,5,3x/6x,5h[2:1],,4,5/6,4h[2:1],,5,3/4,5/6,
{8}4/5,4/5,,3/6,,Cf,,1x/8x,1x/8x,,,,,,
{2}E1,,C,,E5,E4,E6,
{8}E2,,E3,,,E4,,,
{4}E8,E7,E6,,E1,C,E5,,4,5,3/4,5/6,4/5,2b/7b,8,1/7,2/6,3/5<8[4:1],4x,,8,6,4,3/5,2/6,7/1>4[4:1],8x,,6,6<1[4:1],5x,,3,3>8[4:1],4x,,6,5/6,
{8}4h[4:1]/7h[4:1],,,4/7,,4x/6x,,2x/5-8[4:1],,,,,
{4}2,2/1<6[4:1],,,7,7/8>3[4:1],,,
{8}4/5,,,4q2[8:5]/5p7[8:5],{1},{8}1x/8x,,1x/8x,1x/8x,,,,,
{4}3,4,5,6,8/7-4[8:1],,3,2/4,6,5,4,3,1/2-5[8:1],,6,5/7>2[8:1],,,3,2/4,6,5/7,8,1/8,
{8}2h[4:1]/7h[4:1],,,2x/7x,,3x/6x,,4x>1[8:5]/5x<8[8:5],{1},
{4}2h[2:1]/7h[2:1],,,,3x,4,5,6,3x<6[2:1]/7x>2[2:1],,,,
{8}2x/7x,2x/7x,2x/7x,2bx/7bx,
E
MASTER
(190)
{4}6,5,4,5,4,3^6[4:1],7,,
{4}3,4,5,4,5,6^3[4:1],2,,
{4}8,6,5,,5,4>5[4:3],5,,
{4},,1/8,{8}3/7,3/7h[4:1],,{4}5h[4:1],4h[4:1],2h[4:1],7,
{8}4/5,4/5,,{4}2-5[8:1],6,7-4[8:1],3,2-5[8:1],6,
{4}7-4[8:1],3,{8}1,1/8,,{4}B2/B3/E4,B7/B6/E6,E8/E2,E6/B5/B4/E4,{8}1/8,
{4}1^4[8:1]/8^5[8:1],,7-4[8:1],3,2-5[8:1],6,7-4[8:1],3,
{4}2-5[8:1],6<5[4:3],Cf,,,,{8}3h[4:7]/5h[4:1],,,5,
{4},E6,,E7,,E8,8,5/7,
{4}1,2/4,5/6,7/8,1/2,3/4,{8}6h[4:7]/4h[4:1],,,4,
{4},E4,,E3,,E2,1,2/4,
{4}8,7/5,4/3,2/1,8/7,6/5,2/5,{8}1,1,
{4}8,7/3h[4:1],2h[4:1],1h[4:1],8h[4:1],6h[4:1],5^8[8:1],1,
{4}4^1[8:1],8,5^8[8:1],1,4,3/5,4/7,{8}8,8,
{4}1,2/6h[4:1],7h[4:1],8h[4:1],1h[4:1],3h[4:1],4^1[8:1],8,
{4}5-7[8:1],1>8[4:2],8x,,,,2/7^4[4:1],,
{4}8,8,2^5[4:1],,1,1,4/7,{8}3,3,
{8}4,,1/8,1/8,,2/4,,5/7-3[8:1],,1,1,,7/2^5[4:1],,,,
{4}1,8,7^4[4:1],,8,1,2/6,{8}4/7,4/7,
{8},{4}1/8,2/7,{8}E6/E5/E4,Cf,,{4}1x/8x,7b/2b-6[8:1],1-5[8:1],8-4[8:1],
{4}7-3[8:1],1>6[4:1],8,8-5[8:1],1-4[8:1],7-3[8:1],8-4[8:1],1-5[8:1],
{4}2-6[8:1],8<3[4:1],1h[4:3],,3,3^6[4:1],2,,
{4}8h[4:1],6^3[4:1],7,,1h[4:1],3q7[4:1],2,,
{4}8h[4:1],6,4/5,2/3,1/8,6/7,4/5h[4:1],7h[4:1],
{4}8h[4:1],1^4[8:1],5,6,5/7,4,5/4h[4:1],2h[4:1],
{4}1h[4:1],8^5[8:1],4,3,4/2,1,5<1[4:1],1>5[4:1],
{4}5,1pp1[4:1],7,8qq8[4:1],2,1>8[4:2],Cf,,
{4},,4/6,{8}1,2/4,,6,5,4,3h[4:1],,4,4,
{8},3,4,5,{4}6h[4:1],8h[4:1],1h[4:1],3,3/5,{8}8,5/7,
{8},4/5,5/4-2[8:1],,8^5[8:1],,1,1-5[8:1],,8,8,,2/7,,3,2/4,
{8},5/7,,4/8,,1,{4}1^4[8:1],5^8[8:1],1,1,1/7,
{24}B1,B2,B3,E4,B4,B5,{4}B6,8,2/8,{24}B8,B7,B6,E6,B5,B4,{4}B3,1x,1x/7x,
{24}B1,B2,B3,E4,B4,B5,{4}B6,8,2/7,{8}4/6,5,4/5,,{4}2/4,{16}1x,2x,3x,4x,
{16}8x,7x,6x,5x,1x,2x,3x,4x,5x,6x,7x,8x,4x,3x,2x,1x,5x,6x,7x,8x,4x,3x,2x,1x,8x,,,,{8}5/6,4/7,
{8},3/4,2/5,,1/8,2/7,,4/5,4/5,,{4}3/6,1^4[4:2],5,
{4}6,7,8^5[4:2],4,3,2,1h[4:1],{8}5,5,
{8}3,4,5,{4}4/6,3/5,4/7,{8}2/5,{4}2/5,4^1[4:2],8,
{4}7,6,5^8[4:2],1,2,3,8h[4:1],{8}1,1,
{8},{4}3/6,4/5,{8}2b/7b,7b/2b>8[4:2],,{4}Cf,,,,
{1},,
{1},{4},,8-5[4:3],,
{4},,1-4[4:3],,,,5^8[4:2],,
{4}4,3,2-4[8:1]/7-5[8:1],2x/7x,1^4[8:1]/8^5[8:1],1x/8x,6/3h[4:1],1h[4:1],
{4}8h[4:1],6^3[4:1],1,1,2/4,5,4/6h[4:1],8h[4:1],
{4}1h[4:1],3^6[4:1],8,8,5/7,4,4>8[4:1],8<4[4:1],
{4}4,8,1>5[4:1],5<1[4:1],1,5,1/8,{8}6,5/7,
{8},{4}2/4,3/7,1/5,{8}6,{4}6^1[8:1],2^5[8:1],8h[4:7],,
{4}7,5,1,4,7,5>6[4:2],Cf,,
{4},,{8}1x/8x,2x/7x,3x/6x,4x/5x,4/5,,{4}E8/B8/B1/E2,7-4[8:1],1,
{4}2-5[8:1],8,7-4[8:1],1,5/3h[4:1],8,2-5[8:1],8,
{4}7-4[8:1],1,2-5[8:1],8,4/6h[4:1],1,7-3[8:1],1,
{4}2-6[8:1],8,7-3[8:1],1,1/8,3/6,{8}8,1/8,,B7/B6/E6,
{8},{4}B2/B3/E4,E8/E2,E6/B5/B4/E4,{8}1/8,1^4[8:1]/8^5[8:1],,{4},2x/7x<2[4:2],,
{4}1,1,7x/2x>7[4:2],,8,8,1h[4:1]/8h[4:1],,
{8}E1,C,E5,,1/8,3/6,4/5,2b/7b,
E
Re:MASTER
最終更新:2026年10月01日 19:16