BASIC
ADVANCED
EXPERT
MASTER
(55.333333)
{12}8<4[6:1],1,,3,2,,1>5[6:1],8,,6,7,,
{12}8<4[6:1],1,,3,2,,1,8,7,6,7b,,
{12}4-8[6:1],4,,6>3[6:1],6,,1v4[6:1],1,,4,,,
{12}5-1[6:1],5,,3<6[6:1],3,,8qq8[4:1],8,,4,,,
{12}4-8[6:1],4,,6>3[6:1],6,,1v4[6:1],1,,4,,,
{12}5-1[6:1],5,,3<6[6:1],3,,8>6[4:1],8,,4,,,
{12}2h[4:1],,1,1<2[12:5],,,4,4,3,2,1,8,
{12}1h[12:1],8h[12:1],7h[12:1],6h[12:1],5h[12:1],4h[12:1],3h[12:5],D2/E2,D1/E1,D8/E8,D7/E7,D6/E6,
{12}7h[4:1],,8,8>7[12:5],,,5,5,6,7,8,1,
{12}8<5[6:1],8,8,8/4v2<6[4:1]b,4,4,4,,,5,3b/7b,,
{12}1xq5[6:1],{36}5,,6,6,,,7p3[6:1],,,8,,1,1,,,4,,,2-6[12:1],,2,,,8,8,,,{6}7,
{12}7x-4[12:1],{18}4-7[12:1],{36}4,,,2,2,,,{12}1,2,3,5-1[12:1]/6-2[12:1],{36}1/8,,3,4,,,{6}5b/6b,
{12}3-8[12:1],{18}7-4[12:1],{36}7,,,5,3,,,{12}7,1,2-5[12:1],{18}6-1[12:1],{36}6,,,8,2,,,{6}6,
{12}4-1[12:1],1-6[12:1],6,5qq7[4:1],5,5,{2},
{12}8xp4[6:1],{36}4,,3,3,,,2q6[6:1],,,1,,8,8,,,5,,,7-3[12:1],,7,,,1,1,,2,{6},
{12}2x-5[12:1],{18}5-2[12:1],{36}5,,,7,7,,,{12}8,7,6,3-7[12:1]/4-8[12:1],{36}1/8,,6,5,,,{6}3b/4b,
{8}2b/5b,1b/8b,{12}7/4-1[12:1]*-7[12:1],3/6,2/5,4,,{36}2/6,,5,4,,,{6}3/7,
{12}4-1[12:1],1-6[12:1],6,5qq5[4:1]*pp5[4:1],5,5,{2},
{12},4/8,3/7,2>5[6:1]/6<1[6:1],1/5,1/5,2/6,,,4b/8b,3b/6b,1b/5b,
{12}2,2-6[12:1],,8,8v5[6:1],,4,4,3,2h[6:1],,1,
{12}8,8-4[12:1],,2,2-6[12:1],,7<4[12:1],7>2[12:1],,7,7,,
{12}5pp7[6:1],,2,2qq4[12:5],,,5,5,5,6,6,6,
{12}8qq4[3:1],8,8,1-3[12:1],1,1,,,,{36}3,4,3,6,5,6,3,,,
{12}8qq6[6:1],,3,3pp1[12:5],,,7,7,7,6,6,6,
{12}5<8[6:1],5,5,5/4v2<6[4:1]b,4,4,4,,,5,2b/8b,,
{12}5xq1[6:1],{36}1,,2,2,,,3p7[6:1],,,4,,5,5,,,8,,,6-2[12:1],,6,,,4,4,,,{6}3,
{12}3x-8[12:1],{18}8-3[12:1],{36}8,,,6,6,,,{12}5,6,7,1-5[12:1]/2-6[12:1],{36}4/5,,7,8,,,{6}1b/2b,
{12}4/7,{18}3v8[12:1]/5v8[12:1],{36}3/5,,,2,4,,,{12}3/5,,1/7,{18}2pp4[12:1]/8qq6[12:1],{36}2/8,,,3,1,,,{6}2/8,
{12}2-7[12:1],7-4[12:1],4-1[12:1],1,,,6,{36}2-6[12:1],3,4,5,6,7,8x,,2x,,,,7b,,,
{12}4xp8[6:1],{36}8,,7,7,,,6q2[6:1],,,5,,4,4,,,1,,,3-7[12:1],,3,,,5,5,,6,{6},
{12}6x-1[12:1],{18}1-6[12:1],{36}1,,,3,3,,,{12}4,5,4,6/3v1[12:1]*v5[12:1]b,{36}2/5,,2,4,,,{6}3b,
{18}Cf,,,8-4[12:1],{36}2,2,,,{12}1/7,6/8,7>2[12:1],2<7[12:1],3,4/7,,,
{12}2-5[12:1],5-8[12:1],8,1pp1[4:1]*qq1[4:1],1,1,{2},
{4}4z8[4:1],8z4[4:1],4,8p4-6q2<7[4:3],
{1}Ch[4:3],
E
Re:MASTER
最終更新:2026年07月04日 23:13