アットウィキロゴ

Rooftop Run: Act1

アーティスト 大谷智哉「ソニック ジェネレーションズ」

BPM EASY BASIC ADVANCED EXPERT MASTER Re:MASTER
152 2 5 8 11+ 12 13

EXPERT MASTER Re:MASTER
譜面制作者 譜面-100号 ニャイン Techno Kitchen

EASY


BASIC


ADVANCED


EXPERT


MASTER

(152){16}
2,,1,,1,,,,8,,,8,,,8,,
8,,7,,7,,,,6,,,6,,,6,,
3h[2:1],,2,,2,,,,1,,,8,,,7,,
6h[2:1],,5,,5,,,,4,,,3,,,2,,
8h[2:1],,1,,1,,,,2,,3,2,,5,4,,
6h[2:1],,7,,7,,,,5,,4,5,,2,3,,
1h[2:1],,8,,8,,,,7,,6,7,,4,5,,
3,,2,1,2,,8,7,8,,6,5,6,,3,,

{8}
2h[4:1]/8,7,6h[4:1],2,3h[4:1],7,8h[4:1],1,
2h[4:1],7,6h[4:1],3,4h[4:1],5,6h[4:1],3,
2,6,48,,3,7,15,,
7,2,18,27,,,,,
2h[4:1]/8,7,6h[4:1],2,3h[4:1],7,8h[4:1],1,
2h[4:1],7,6h[4:1],3,4h[4:1],5,6h[4:1],3,
2,6,48,,3,7,15,,
7,2,18,27,,,,,

{4}
2-7[8:1],6-3[8:1],2-7[8:1],6-3[8:1],
2-7[8:1],8-5[8:1],4-1[8:1],,
8h[4:1],2h[4:1],6h[4:1],4h[4:1],
5h[4:1],3h[4:1],7h[4:1],1h[4:1],
8-3[8:1],1-6[8:1],7-4[8:1],2-5[8:1],
6^1[8:1],2^5[8:1],6-2[8:1],,
4h[4:1],5h[4:1],6h[4:1],7b,
18,{8}36,36,,,,,

7h[4:1]/2,,6h[4:1],,5h[4:1],,4,,
3h[4:1]/6,,4h[4:1],,5h[4:1],,6,,
7h[4:1]/8,1,2,,3h[4:1]/4,5,5,,
8h[4:1]/7,6,5,,4h[4:1]/3,2,1,,
78,,12,,78,,12,,
68,,13,,46,,35,,
7h[4:1]/8,1,2,,3h[4:1]/4,5,5,,
8h[4:1]/7,6,5,,4h[4:1]/3,2,1,,

8,6,4,2h[8:3],,,,,
3,5,7,1h[8:3],,,,,
8,6,4,2h[8:3],,,,,
3,4,5,6h[8:3],,,,,
78,1,2,4h[8:3]/3,,,8b,,
67,5,4,2h[8:3]/3,,,1b,,
{16}7h[16:3]/2,,,6h[16:3],,,5,,2h[16:3]/7,,,3h[16:3],,,4,,
7h[16:3]/2,,,8h[16:3],,,1,,18,,,36,,,45,,
{4}3-7[8:1],6-2[8:1],4-8[8:1],,

8,8,7,7,
6,6,5,5,
4,1,6,3,
8,5,2,7b,

6-1[8:1]/8h[4:3],,2^5[8:1],,
6h[4:1],{8},36,,4,3,2,
18,,67,,45,,23,,
18,,7,7,,8,1,2,
{4}3-8[8:1]/1h[4:3],,7^4[8:1],,
3h[4:1],{8},63,,5,6,7,
81,,32,,54,,76,,
81,,2,2b,,,,,

{16}
78,,6,,6,,,,1,2,,2h[16:3],,,1,,
8,,8,,7h[4:1],,,,6,5,,5,,,5,,
6,,7,,7b,,,,8,1,,1h[16:3],,,2,,
3,,4,,4h[4:1],,,,3,2,,2,,,1,,
12,,3,,3,,,,8,7,,7h[16:3],,,8,,
1,,1,,2h[4:1],,,,3,4,,4,,,4,,
3,,2,,2,,,,1,8,,8h[16:3],,,7,,
6,,5,,5h[4:1],,,,4,,,3,,,3,,

{8}
7h[4:1]/3,,6,,8,1,2,3h[8:5],
,,,,2,{16}1,8,7,6,5,,
2,3,{8}4h[8:5],,,,,5h[4:1],,
6,7,28,13,,,,,
2h[4:1]/6,,3,,1,8,7,6h[8:5],
,,,,7,{16}8,1,2,3,4,,
7,6,{8}5h[8:5],,,,,4h[4:1],,
3,2,71,86,,,,,

1h[4:1]/8,,7h[4:1],,3h[4:1],,5,,
45,3,2,1b,,,,,

{1},
E

Re:MASTER

(152)
{8}4,5,36,,{16}2h[16:3],,,3h[16:3],,,{8}4,,6,5,4,36,,{16}1,8,7,6,
{8}5h[8:5],3,3,,,4,6,1h[4:3],,7,7,,,8,2,5,{16}1,2,3,,8,,,,7h[16:3],,,6h[16:3],,,{8}5,
,4,5,6,,2,1,8,{4}7,56,2,34,{16}1h[8:1]/8h[8:1],,,3h[8:1]/6h[8:1],,,27,,{4},1b/8b,

{8}1h[8:1]/6,4,8h[8:1]/3,5,1h[8:1]/6,4,8h[8:1]/3,5,1h[8:1]/7,4,82,46,,17,{16}8,17,26,35,
{8}4h[8:1],1,3/5h[8:1],8,6/4h[8:1],1,3/5h[8:1],8,64,37,28,1w5[8:1],{2},
{8}8h[8:1]/3,5,1h[8:1]/6,4,8h[8:1]/3,5,1h[8:1]/6,4,8h[8:1]/2,5,17,53,,82,{16}1,82,73,64,
{8}5h[8:1],8,6/4h[8:1],1,3/5h[8:1],8,6/4h[8:1],1,35,62,71,8w4[8:1],{2},

{8}2-5[16:1],1,7-4[16:1],8,2-5[16:1],1,7-4[16:1],8,2-5[16:1],1,7,8,,2,1,8,
7-3[16:1],8,1-5[16:1],8,7-3[16:1],8,1,8,{16}1h[8:1]/7h[8:1],,,3h[8:1]/5h[8:1],,,{8}28,,24,15,68,
7-4[16:1],8,2-5[16:1],1,7-4[16:1],8,2-5[16:1],1,7-4[16:1],8,2,1,,7,8,1,
2-6[16:1],1,8-4[16:1],1,2-6[16:1],1,8,1,
{16}8h[8:1]/2h[8:1],,,6h[8:1]/4h[8:1],,,{8}7h[4:1]/3h[4:1],,,{16}1,8,1,8,

{8}2^5[16:1],1,7^4[16:1],8,2^5[16:1],1,7^4[16:1],8,2^5[16:1],1,7,8,,6h[8:1],4h[8:1],8h[8:1],
2^5[16:1],1,8^5[16:1],1,2^5[16:1],1,8,1,{16}8h[8:1]/2h[8:1],,,4h[8:1]/5h[8:1],,,{8}17,,24,15,68,
7^4[16:1],8,2^5[16:1],1,7^4[16:1],8,2^5[16:1],1,7^4[16:1],8,2,1,,3h[8:1],5h[8:1],1h[8:1],
7^4[16:1],8,1^4[16:1],8,7^4[16:1],8,1,8,{16}1h[8:1]/7h[8:1],,,5h[8:1]/4h[8:1],,,8/2h[8:3],,{4},7b,

{8}6<2[16:5],3,1>5[4:1],1h[8:3],{2},{8}3>7[16:5],6,8<4[4:1],8h[8:3],{2},
{8}7<3[16:5],2,4>8[4:1],4h[8:3],{2},{8}2>6[16:5],7,5<1[4:1],5h[8:3],{2},
{8}8<3[16:5],2,4>8[4:1],4h[8:3],{2},{8}1>6[16:5],7,5<1[4:1],5h[8:3],{2},
{16}4h[16:3]/5,,,3h[16:3],,,2,,5h[16:3],,,6h[16:3],,,7,,
3h[16:3],,,2h[16:3],,,1,,6h[16:3],,,7h[16:3],,,8,,
{4}1b-5[8:1],1b^4[8:1]*^6[8:1],1bw5[8:1],1b,

{16}8h[16:3],,,7,7h[16:3],,,6,6h[16:3],,,5,5h[16:3],,,4,
4h[16:3],,,3,3h[16:3],,,2,2h[16:3],,,1,1h[16:3],,,8,
8h[16:3],,,6,6h[16:3],,,4,4h[16:3],,,2,2h[16:3],,,4,
4h[16:3],,,6,6h[16:3],,,8,8h[16:3],,,2,2b,,,,

{2}7^4[8:1],2^5[8:1],8pp2[8:1]*qq6[8:1],{8},2,1,8,
{4}7,56,2,34,{16}7h[16:3],,,6h[16:3],,,{8}5,,7,8,1,
{2}2^5[8:1],7^4[8:1],1qq7[8:1]*pp3[8:1],{8},7,8,1,
{4}2,43,7,65,{16}2h[16:3],,,3h[16:3],,,4,,,,1b/8b,,2,7,2,7,

{8}1h[4:1],8,5h[4:1],4,2h[4:1],1,6h[4:1],5,3h[4:1],2,6,67,,3,7-2[16:1],8,
3-6[16:1],4,7-2[16:1],8,3-6[16:1],4,7,8,{16}1h[8:1]/3h[8:1],,,4h[8:1]/5h[8:1],,,{8}6b/8b,,45,36,27,
8h[4:1],1,4h[4:1],5,7h[4:1],8,3h[4:1],4,6h[4:1],7,3,32,,6,2-7[16:1],1,
6-3[16:1],5,2-7[16:1],1,6-3[16:1],5,2,1,
{16}8h[8:1]/6h[8:1],,,5h[8:1]/4h[8:1],,,{8}3h[4:1]/1b,,{24}8,7,6,{8}5b,,

3-8[16:1]/7,1,7-4[16:1],5,3-8[16:1],1,7-4[16:1],5,3-8[16:1],1,7,5,,{16}5,4,3,2,1,8,
{8}7/1h[8:1],4,2/8h[8:1],5,7/1h[8:1],4,2/8h[8:1],5,46,37,28,1w5[8:1],{2},
{8}6-1[16:1]/2,8,2-5[16:1],4,6-1[16:1],8,2-5[16:1],4,6-1[16:1],8,2,4,,{16}4,5,6,7,8,1,
{8}2/8h[8:1],5,7/1h[8:1],4,2/8h[8:1],5,7/1h[8:1],4,53,62,71,8w4[8:1],{2},

{4}45,3h[4:1],1h[4:1],8h[4:1],{8}6,8,1,{1}3b,,,,E

  • Re:MASTER譜面を追加しました。修正等ありましたらよろしくお願いします。 -- けもがみ (2026-04-06 22:17:01)
名前:
コメント:

タグ:

+ タグ編集
  • タグ:
最終更新:2026年10月04日 09:48