アットウィキロゴ

QUEEN

アーティスト Kanaria

BPM BASIC ADVANCED EXPERT MASTER Re:MASTER
170 3 6 10 12+ -

EXPERT MASTER Re:MASTER
譜面制作者 鳩ホルダー サファ太 -

BASIC


ADVANCED


EXPERT

(170)
{4}3h[1:1],,4,4,5h[1:1],,4,4,3h[1:1],,4,4,5,4,4/5,,6h[1:1],5,4,5,4h[1:1],5,6,5,6h[4:7],5,4,
{8}3,3h[8:7],{1},{8}4b/5b,,3,,2,2,4,,5,,4/6,,7,7,5,,
{4}3,3/4,6,5/6,
{8}4,4,5,,
{4}3/6,,5,4/6,
{8}7,7,5,,4,,3/5,,2,2,4,,
{4}6,5/6,3,3/4,
{8}5,5,4,,
{2}3b/6b,4qq4[8:9]b*pp4[8:9]b,,,,
{8}4h[1:1],,5,5,,3,3,,6h[1:1],,5,5,,7,7,,2h[1:1],,3x,3,,1x,1,,7h[1:1],,6,6,,8,8,,1,,8,8,,1,1,,
{2}1-4[4:1]/8-5[4:1],,3-6[4:1],7-4[4:1],2-5[4:1],6h[2:1],
{4}5,4b/8b,3,2,1>4[4:1],,5<8[4:1],,1,2,3,3/4,5,6,7,7/8,1/2-4[8:1],,
{2}8/7-5[8:1],8/1w5[4:1]b,,
{4}7/8,7<4[4:1]/8>3[4:1],,,3/4,3/4V68[4:1],,,
{8}2,2,1/2,,7,7,7/8,,6,6,5/6,,
{4}5x/7x,2x/4x,1/2,1<6[4:1]/2>5[4:1],,,5/6,4/7V53[4:1],,,2h[4:1],1h[4:1],8h[4:1],
{8}7,7,,3/6,3/6,,4/5,,1b/8b,,2x/8x,2x/8x,,1x/7x,,2x/8x,,1x/7x<4[8:3],,,,,,,3/5,,1/7,1/7,,2/8,,1/7,,8/2>5[8:3],,,,,,,4/6,,2/8,2/8,,1/7,,2/8,,7/1>5[8:3],,,,,,,4/6,,7,7,8,,2,2,1,1,,2/8,2/8,,
{4}1-5[8:1]/8-4[8:1],,3b/6b,,3,2/4,1,2/8,
{8}7,7,8,,
{4}2,1/2,7,7/8,
{8}1,1,8,,
{4}2/7,,7,7/8,
{8}6,6,8,,2,,1/2,,3,3,1,,
{4}7,7/8,2,1/2,
{8}8,8,1,,
{4}2b/7b,,2h[1:2],,E1,E2,E3,E4,E5,,7h[1:2],,E1,E8,E7,E6,E5,,3h[1:1],,E5,E6,6h[1:1],E5,E5,E4,3,4,5,6,4/5,4/5,3/6,,4/3h[4:3],4,4,4,4/5h[4:3],4,4,4,4/2h[4:3],4,4,4,4/6h[4:3],4,4,4,4,4h[2:1],,3h[2:1],2,
{8}2h[2:1],,,1,1h[2:1],,
{4}8,8h[2:1],7,7h[4:1],6,5,4/5,,B3/B6/Cfh[1:1],,,,,,,,7/8,7<4[4:1]/8>3[4:1],,,4,3/4V68[8:3],,,
{8}2,1,3/8,,7,8,1/6,,3,4,2/5,,
{4}6x/8x,1x/3x,1/2,1<6[4:1]/2>5[4:1],,,5/6,4/7V53[4:1],,,2h[4:1],1h[4:1],8h[4:1],
{8}7,7,,3/6,3/6,,4/5,,1b/8b,,1/2,1/2,,7/8,,1/2,,8/7<4[8:3],,,,,,,3/5,,7/8,7/8,,1/2,,7/8,,1/2>5[8:3],,,,,,,4/6,,1/2,1/2,,7/8,,1/2,,7/8<4[8:3],,,,,,,3/5,,2,2,1,,7,7,8,8,,1/7,1/7,,
{4}1-5[8:1]/7-3[8:1],,2b/6b,,3,2/4,6,5/7,
{8}8,8,1,,2,2,4,,7,7,5,,3,3,5,5,1/6,,,,6,,5/7,,8,8,1,,3,,2/4,,1,1,8,,7,7,5,,2,2,4,,6,6,5,5,8,,1/7-3[8:1],
E

MASTER

(170)
{1},
{2}3>6[4:3]/5h[4:15],,,{4}6,6,
{4}6<3[4:3],,,,,,4,4,
{4}3/6-4[8:1],2,2h[4:1],4,5/3-5[8:1],6,6h[4:1],5,
{8}4,4,5,5,46,37,28,1h[8:7],,,,,,,A4/A5/E5,,
{8}3b/7,6,4h[4:1],,5,6,7h[4:1],,8,1,2h[4:1],,4-6[8:1],4,3,,
{8}2-4[8:1],2,6,,7-5[8:1],7,4,,34,2,35,2,34,,17,,
{8}26,3,5h[4:1],,4,3,2h[4:1],,1,8,7h[4:1],,5-3[8:1],5,6,,
{8}7-5[8:1],7,3,,2-4[8:1],2,5,,7<3[4:1],7,3,2,1-4[8:1]*-6[8:1],,,,
{1}7/3bh[1:1],{8}5h[8:5],,,B4/B5/E5,,3,3h[4:1],,
{8}4,,6,5/7h[4:1],,8,8,,16,,2,2h[4:1],,4,4-7^5-1[4:3],,
{4}3x,2,1x,2h[4:1],1,{8}12,12,,3,4/2h[4:1],,
{8}6,,7,7h[4:1],,5,5v7[4:1],,7^1[4:1],,6x,6x,,28,28,,
{8}2h[8:1],4,2,4,3h[8:1],5,4,4,7h[8:1],5,7,5,6,5,4-1[8:1],,
{8}8^3[8:1]*^5[8:1],,,,3x/5x,4,35,6,7h[8:1],5,6h[8:1],4,37,,48,,
{8}6h[8:1],5,7,5,6h[8:1],5,7,7,6,5,4,4,3/5h[4:1],,2^7[4:1],,
{4}E5,6^3[4:1],C,1h[4:1],E1,{8}8,8,1x/7x,2x/6x,,,
{4}3b^1[8:1]/7b^5[8:1],37,4-7[8:1]/8-3[8:1],48,8^5[8:1],8^3[8:1],8/4w8[8:1],,
{8}1x/7x,2,34,5,46,7,18,2,3-5[8:1],7-3[8:1],3,7,1,,2-4[8:1]/8-4[8:1],,
{4}2-6[8:1]/8-6[8:1],2/8-4[8:1],38,1^4[8:1]/5^8[8:1],1p5[8:1]/5p1[8:1],1^4[8:1]/5^8[8:1],15,37,
{8}16,5,3-8[8:1],3,7-3[8:1],7,1,2bh[4:1],,1,38,47,6^1[8:1],,56,,
{8}3h[8:1],B8/E1,3h[8:1],B6/E7,3h[8:1],B4/E5,2,2,17,7/1^6[8:1],,5,5-1[8:1],,4,,
{8}3h[8:1],B8/E1,3h[8:1],B6/E7,3h[8:1],B4/E5,2,2,16,6/1^6[8:1],,5,5v2[8:1]*v8[8:1],,,,
{8}1,2x/8x,3,2x/4x,5,4x/6x,7,6x/8x,15,1/5<3[4:1],,4,4w8[8:1],,,,
{8}2x/6x,2x/6x,,4,35,46,57,8b/Cf,,17,2v4[8:1]/6v8[8:1],,26,,,,
{8}1b/5,6,3/7h[4:1],,8,1,8/2h[4:1],,1,2,5/3h[4:1],,4-7[8:1],4,2,,
{8}1-4[8:1],1,7,,6-1[8:1],6,4,,1x/2,3,28,3,12,,18,,
{8}7,8,6/1h[4:1],,5,6,3/7h[4:1],,8,7,4/6h[4:1],,5-2[8:1],5,7,,
{8}8-5[8:1],8,2,,3-8[8:1],3,5,,7/8x,6,17,6,78,,1^4[2:1],,
{2}7bh[4:5],,4h[4:1],{4}56,6/5>1[2:1],
{2}7h[4:5],,8h[4:1],{4}1x/8x,2/1p4[2:1],
{2}3h[4:5],,4h[4:1],{4}45,6/5p4[2:1],
{2}7h[4:5],,4h[4:1],{4}56,6/4^1[2:1],
{4}6,6,6,6/1q5[2:1],6,6,6,6/5>1[2:1],
{4}6,6,6,1/6p4[2:1],1,2x,2x,3/4q1[2:1],
{4}3,3,3,3/1<4[2:1],3,3,3,3/4q5[2:1],
{4}3,3,3,35,46,7/5w1[4:1],,,
{16}7/3h[16:3],,,4h[16:3],,,5,,7h[16:3],,,6h[16:3],,,5,,4h[16:3],,,3h[16:3],,,{8}2,12,38,,,
{4}2-5[8:1]/6b-1[8:1],26,4^1[8:1]/7^4[8:1],47,8-3[8:1],8^5[8:1],8/4-2[8:1]*-8[8:1],,
{8}1x/7x,2,35,6,35,2,45,6,7-4[8:1],7,3-8[8:1],3,6x,,1-5[8:1]/7-5[8:1],,
{4}1-3[8:1]/7-3[8:1],7/1-5[8:1],16,4^1[8:1]/8^5[8:1],4q8[8:1]/8q4[8:1],4^1[8:1]/8^5[8:1],48,26,
{8}38,4,6-1[8:1],6,2-6[8:1],2,8,7bh[4:1],,8,16,25,3^8[8:1],,34,,
{8}6h[8:1],B1/E1,6h[8:1],B3/E3,6h[8:1],B5/E5,7,7,38,3/8^3[8:1],,4,4-8[8:1],,5,,
{8}6h[8:1],B1/E1,6h[8:1],B3/E3,6h[8:1],B5/E5,7,7,28,2/8^3[8:1],,4,4v1[8:1]*v7[8:1],,,,
{8}8,1x/7x,6,5x/7x,4,3x/5x,2,1x/3x,48,8/4>6[4:1],,5,5w1[8:1],,,,
{8}3x/7x,3x/7x,46,5,46,35,24,1/5b,,37,3v1[8:1]/7v5[8:1],,37,,,,
{8}2/6b,3,5h[4:1],,4-2[8:1],4,5,,6-4[8:1],6,2,,1-5[8:1],1,4,,
{8}7-2[8:1],7,5,,3-6[8:1],3,1,,78,6,4/5-1[8:1],3,2h[4:1],,8x,,
{8}7-4[8:1],7,8,,2-4[8:1],2,4,,6-4[8:1],6,4,,2-5[8:1],2,1,,
{8}7^4[8:1],8,1,2,3^8[8:1],4,5,6,57,46,35,26,17,{16}1,8,2,7,3,6,
{16}E5f,
E


Re:MASTER


名前:
コメント:

タグ:

+ タグ編集
  • タグ:
最終更新:2026年09月19日 15:45